Watch Wrestling WWE Chronicle S01E23 Lana Online

WWE Chronicle Ricochet

Wrestling WWE Chronicle S01E23 Lana 1080p DX-TV

WWE Chronicle

 

 WWE Chronicle

 

Watch Wrestling WWE Chronicle S01E23 Lana Online

 

 

[su_expand more_text=”Show More Info” less_text=”Close all Info” height=”30″ text_color=”#000000″ link_color=”#e25f8b” link_style=”button” more_icon=”icon: arrow-down” less_icon=”icon: arrow-up”]

 

Complete name : WWE.Chronicle.S01E23.Lana.1080p.WEB.h264-HEEL.mp4
Format : MPEG-4
Format profile : Base Media
Codec ID : isom
File size : 1.61 GiB
Duration : 29 min 26 s
Overall bit rate : 7 838 kb/s
Writing application : Lavf58.32

WWE Chronicle

Video
ID : 1
Format : AVC
Duration : 29 min 26 s
Bit rate : 7 808 kb/s
Width : 1 920 pixels
Height : 1 080 pixels
Display aspect ratio : 16:9
rate mode : Constant
Frame rate : 30.000 FPS
Color space : YUV
Chroma subsampling : 4:2:0
Bit depth : 8 bits
Scan type : Progressive
Bits/(Pixel*Frame) : 0.126
Stream size : 1.57 GiB

WWE Chronicle

Audio
ID : 2
Format : AAC LC
Format/Info : Advanced Audio
Codec ID : mp4a-40-2
Duration : 29 min 26 s
Bit rate mode : Constant
Bit rate : 192 kb/s
Channel(s) : 2 channels
Channel layout : L R
Sampling rate : 48.0 kHz
Frame rate : 46.875 FPS
Compression mode : Lossy
Stream size : 40.6 MiB
Default : Yes
Alternate group : 1

 

 

Watch Wrestling WWE Chronicle S01E23 Lana Online

 

 

[/su_expand]

 

 

Watch online

 

 

Server 1

 

 

 

 

 

 

WWE Chronicle

 

Server-2

 

 

 

 

 

 

 

 

Uploaded By Site DX-TV.com

 

 

 

 

Download Free Links with normal and high Speed [ more 14 hosts ]  

 

[su_expand more_text=”Show Hosts Info” less_text=”Close all Info” height=”30″ text_color=”#000000″ link_color=”#e25f8b” link_style=”button” more_icon=”icon: arrow-down” less_icon=”icon: arrow-up”]

 

WWE Chronicle

hexupload.net – clicknupload.co – www.multiup.org

– uptobox.com – anonfiles.com – userscloud.com – 

 

 

[/su_expand]

 

 

http://shrt10.com/64TKEKoR
http://shrt10.com/qzA65VE2q
http://shrt10.com/WwjvJGi7u
http://shrt10.com/NC0ju
http://shrt10.com/69Y00A3
http://shrt10.com/fd2HSh7s3
http://shrt10.com/uRAk2
http://shrt10.com/ZcGUOS

 

 

 

 

Download Links with premium High Speed   

 

 

 

 

dropapk.to

 

 

 

nitroflare.com

 

 

 

rapidgator.net

 

 

 

uploaded.net

 

 

 

uploadgig.com

 

 

 

WWE Chronicle

 

dx-tv.com

 

urlfree.net

You May Also Like

Leave a Reply

Your email address will not be published. Required fields are marked *

This site uses Akismet to reduce spam. Learn how your comment data is processed.