Watch Wrestling WWE 205 Live 2020 12 25 1080p DX-TV

WWE 205-Live

Watch Wrestling WWE 205 Live 2020 12 25 1080p DX-TV

Watch Wrestling WWE 205

 Watch Wrestling WWE 205

 

Download Links with premium High Speed   

 

 

dropapk.to

http://shrt10.com/LIVan3t

 

 

nitroflare.com

http://shrt10.com/X4GCcnQ1L

 

 

rapidgator.net

http://shrt10.com/prgTtUAIA

 

 

uploaded.net

http://shrt10.com/fQTqY3YUQ

 

 

uploadgig.com

http://shrt10.com/rfCR7mtGP

 

Watch online

 

Server 1

 

 

 

 

Watch Wrestling WWE 205

 

 

 

 

Server-2

 

 

 

 

watch now

 

 

Uploaded By Site DX-TV.com

 

 

 

[su_expand more_text=”Show More Info” less_text=”Close all Info” height=”50″ text_color=”#000000″ link_color=”#e25f8b” link_style=”button” more_icon=”icon: arrow-down” less_icon=”icon: arrow-up”]

Complete name : WWE.205.Live.2020.12.25.1080p.WEB.h264-HEEL.mp4
Format : MPEG-4
Format profile : Base Media
Codec ID : isom
File size : 1.68 GiB
Duration : 30 min 19 s
Overall bit rate mode : Variable
Overall bit rate : 7 939 kb/s
Writing application : Lavf58.32.104

Watch Wrestling WWE 205

Video
ID : 1
Format : AVC
Duration : 30 min 19 s
Bit rate : 7 808 kb/s
Width : 1 920 pixels
Height : 1 080 pixels
Display aspect ratio : 16:9
Frame rate mode : Constant
Frame rate : 30.000 FPS
Color space : YUV
Chroma subsampling : 4:2:0
Bit depth : 8 bits
Scan type : Progressive
Bits/(Pixel*Frame) : 0.126
Stream size : 1.64 GiB (97%)

Watch Wrestling WWE 

Audio
ID : 2
Format : AAC LC
Format/Info : Advanced Audio
Codec ID : mp4a-40-2
Duration : 30 min 19 s
Bit rate mode : Variable
Bit rate : 192 kb/s
Maximum bit rate : 415 kb/s
Channel(s) : 2 channels
Channel layout : L R
Sampling rate : 48.0 kHz
Frame rate : 46.875 FPS
Compression mode : Lossy
Stream size : 41.8 MiB
Default : Yes
Alternate group : 1

Watch Wrestling 

Audio
ID : 2
Format : AAC LC
Format/Info : Advanced Audio
Codec ID : mp4a-40-2
Duration : 30 min 19 s
Bit rate mode : Variable
Bit rate : 192 kb/s
Maximum bit rate : 415 kb/s
Channel(s) : 2 channels
Channel layout : L R
Sampling rate : 48.0 kHz
Frame rate : 46.875 FPS
Compression mode : Lossy
Stream size : 41.8 MiB
Default : Yes
Alternate group : 1

 

[/su_expand]

 

https://dx-tv.com/

You May Also Like

Leave a Reply

Your email address will not be published. Required fields are marked *

This site uses Akismet to reduce spam. Learn how your comment data is processed.