Watch Wrestling WWE 205 Live 2020 11 06 1080p Online

Wrestling WWE 205 Live 2020 11 06 1080p Online DX-TV

Watch Wrestling WWE 205 Live

 

 Watch Wrestling WWE 205 Live
 

Watch Wrestling WWE 205 Live 2020 11 06 1080p Online

 

Complete name : WWE.205.Live.2020.11.06.1080p.WEB.h264-HEEL.mp4
Format : MPEG-4
Format profile : Base Media
Codec ID : isom
File size : 1.83 GiB
Duration : 33 min 4 s
Overall bit rate mode : Variable
Overall bit rate : 7 933 kb/s
Writing application : Lavf58.32.104

Watch Wrestling WWE 205 Live

Video
ID : 1
Format : AVC
Duration : 33 min 4 s
Bit rate : 7 808 kb/s
Width : 1 920 pixels
Height : 1 080 pixels
Display aspect ratio : 16:9
Frame rate mode : Constant
Frame rate : 30.000 FPS
Color space : YUV
Chroma subsampling : 4:2:0
Bit depth : 8 bits
Scan type : Progressive
Bits/(Pixel*Frame) : 0.126
Stream size : 1.79 GiB (97%)

Watch Wrestling WWE 205 Live

Audio
ID : 2
Format : AAC LC
Format/Info : Advanced Audio Codec
Codec ID : mp4a-40-2
Duration : 33 min 4 s
Bit rate mode : Variable
Bit rate : 192 kb/s
Maximum bit rate : 415 kb/s
Channel(s) : 2 channels
Channel layout : L R
Sampling rate : 48.0 kHz
Frame rate : 46.875 FPS (1024 SPF)
Compression mode : Lossy
Stream size : 45.6 MiB (2%)
Default : Yes
Alternate group : 1

Watch Wrestling WWE 205 Live

Mansoor def. Ashante “Thee” Adonis

A spirited bout followed, and while Adonis momentarily had Mansoor reeling with several vicious strikes, a picture-perfect dropkick and a high crossbody.

Mansoor withstood the blitz and recovered to score the victory with What Goes Up Must Come Down.

After the bell, Mansoor initiated a handshake and appeared to apologize to Adonis for refusing the pre-match olive branch.

 Wrestling WWE 205 Live

Tony Nese & Ariya Daivari def. Curt Stallion & August Grey

Challenged to a tag team match and without a tag team partner.

Curt Stallion knew exactly where to turn for a bout against his newfound rivals, Tony Nese & Ariya Daivari.

As Stallion described before the bout, he had a problem with the 205 Live O.G.’s, so he brought in the A.G.: Austin Grey.

Though Daivari wasn’t the legal man, that didn’t stop him from slugging Grey while he was standing on the apron. From there.

Nese landed a springboard moonsault, and Daivari slammed Grey’s head against the announce table to leave the 205 Live newcomer in desperate need of a tag.

 

Watch Wrestling WWE 205 Live 2020 11 06 1080p Online

 

 

 

 

Watch online

 

 

 

 

 

Server 1

 

 

 

 

Watch Wrestling WWE 205 Live

 

 

 

 

Server-2

 

 

 

watch now

 

 

 

 

Uploaded By Site DX-TV.com

 

 

 

Download Free Links with normal and high Speed [ more 14 hosts ]  

 

[su_expand more_text=”Show Hosts Info” less_text=”Close all Info” height=”30″ text_color=”#000000″ link_color=”#e25f8b” link_style=”button” more_icon=”icon: arrow-down” less_icon=”icon: arrow-up”]

 

 Wrestling WWE 205 Live

hexupload.net – clicknupload.co – www.multiup.org – uptobox.com – anonfiles.com – userscloud.com –

dropapk.to alfafile.net – ddownload.com – rockfile.co – 1fichier.com – filedown.org – katfile.com – filerio.in

 

 

[/su_expand]

 

 

http://shrt10.com/7UeMbbuK
http://shrt10.com/13NCuY0o
http://shrt10.com/rswg4qoB
http://shrt10.com/zenwD
http://shrt10.com/vGIegcu2U
http://shrt10.com/hTPb7mc
http://shrt10.com/kjy5AgOh
http://shrt10.com/gHyT6hOL2

 

 

 

 

Download Links with premium High Speed   

 

 

 

 

dropapk.to

 

 

 

nitroflare.com

 

 

 

rapidgator.net

 

 

 

uploaded.net

 

 

 

uploadgig.com

 

 

 

 

 

dx-tv.com

 

urlfree.net

Leave a Reply

Your email address will not be published. Required fields are marked *

This site uses Akismet to reduce spam. Learn how your comment data is processed.