Watch Wrestling WWE 205 Live 2020 10 23 1080p

Wrestling WWE 205 Live 2020 10 23 1080pDX-TV

 

Watch Wrestling WWE 205

 

 Watch Wrestling WWE 205
 


 

 

Watch Wrestling WWE 205 Live 2020 10 23 1080p

 

 

In his debut match last week, Curt Stallion stood toe-to-toe with Ariya Daivari. Just when it appeared he might have a chance to defeat the 205 Live original, Stallion was blindsided by Tony Nese, who dashed to the ring and never broke stride before clobbering Stallion with a savage Running Nese.

Naturally, Stallion is looking for payback against The Premier Athlete, who has shown a nasty streak ever since “Swerve” declined to continue their partnership.

Can Stallion score the biggest win of his life against the former Cruiserweight Champion, or will Nese brutalize the newcomer?

Find out on 205 Live, streaming on the award-winning WWE Network tonight at 10/9

Watch Wrestling WWE 205

Complete name : WWE.205.Live.2020.10.23.1080p.WEB.h264-HEEL.mp4
Format : MPEG-4
Format profile : Base Media
Codec ID : isom
File size : 1.92 GiB
Duration : 34 min 33 s
Overall bit rate mode : Variable
Overall bit rate : 7 937 kb/s
Writing application : Lavf58.32.104

 Wrestling WWE 205

Video
ID : 1
Format : AVC
Duration : 34 min 33 s
Bit rate : 7 808 kb/s
Width : 1 920 pixels
Height : 1 080 pixels
Display aspect ratio : 16:9
Frame rate mode : Constant
Frame rate : 30.000 FPS
Color space : YUV
Chroma subsampling : 4:2:0
Bit depth : 8 bits
Scan type : Progressive
Bits/(Pixel*Frame) : 0.126
Stream size : 1.87 GiB (97%)

Watch Wrestling WWE 205

Audio
ID : 2
Format : AAC LC
Format/Info : Advanced Audio
Codec ID : mp4a-40-2
Duration : 34 min 33 s
Bit rate mode : Variable
Bit rate : 192 kb/s
Maximum bit rate : 415 kb/s
Channel(s) : 2 channels
Channel layout : L R
Sampling rate : 48.0 kHz
Frame rate : 46.875 FPS (1024 SPF)
Compression mode : Lossy
Stream size : 47.7 MiB (2%)
Default : Yes
Alternate group : 1

 

 

 

Watch Wrestling WWE 205 Live 2020 10 23 1080p

 

 

Watch online

 

 

 

Server 1

 

 

 

 

Watch Wrestling WWE 205

 

 

 

Server-3

 

 

 

watch now

 

 

 

 

Uploaded By Site DX-TV.com

 

 

 

 

Download Free Links with normal and high Speed [ more 14 hosts ]  

 

[su_expand more_text=”Show Hosts Info” less_text=”Close all Info” height=”30″ text_color=”#000000″ link_color=”#e25f8b” link_style=”button” more_icon=”icon: arrow-down” less_icon=”icon: arrow-up”]

 

 Wrestling WWE 205

hexupload.net – clicknupload.co – www.multiup.org – uptobox.com – anonfiles.com – userscloud.com –

dropapk.to alfafile.net – ddownload.com – rockfile.co – 1fichier.com – filedown.org – katfile.com – filerio.in

 

 

[/su_expand]

 

 

 

http://shrt10.com/rQpANU
http://shrt10.com/AhN5Nbv5
http://shrt10.com/QRcehz
http://shrt10.com/lt8cYh
http://shrt10.com/wu010sh
http://shrt10.com/JSlpaT
http://shrt10.com/XnI2DYWy
http://shrt10.com/fTQv96O4
http://shrt10.com/52MoLeIv
http://shrt10.com/VbOKZ
http://shrt10.com/fRmiF8Hbm

 

 

 

Download Links with premium High Speed   

 

 

 

 

 

dropapk.to

 

 

 

nitroflare.com

 

 

 

rapidgator.net

 

 

 

uploaded.net

 

 

 

uploadgig.com

 

 

 

 

dx-tv.com

 

urlfree.net

Leave a Reply

Your email address will not be published. Required fields are marked *

This site uses Akismet to reduce spam. Learn how your comment data is processed.