Watch Wrestling UWN Primetime Live 2020 12 01 1080p Free

Watch Wrestling Online UWN Primetime Live 2020 12 01 1080p Star DX-TV

Watch Wrestling UWN Primetime Live

 

 Watch Wrestling UWN Primetime Live

 

[su_expand more_text=”Show More Info” less_text=”Close all Info” height=”30″ text_color=”#000000″ link_color=”#e25f8b” link_style=”button” more_icon=”icon: arrow-down” less_icon=”icon: arrow-up”]

 

Complete name : UWN.Primetime.Live.2020.12.01.1080p.SLING.PPV.x264-Star.mkv
Format : Matroska
Format version : Version 4
File size : 6.22 GiB
Duration : 1 h 27 min
Overall bit rate : 10.2 Mb/s

Watch Wrestling UWN Primetime Live

Video
ID : 1
Format : AVC
Duration : 1 h 27 min
Bit rate : 10 000 kb/s
Width : 1 920 pixels
Height : 1 080 pixels
Display aspect ratio : 16:9
Frame rate mode : Constant
Frame rate : 29.970 FPS
Color space : YUV
Chroma subsampling : 4:2:0
Bit depth : 8 bits
Scan type : Progressive
Bits/(Pixel*Frame) : 0.161
Stream size : 5.94 GiB (96%)
Color range : Limited
Color primaries : BT.709
Transfer characteristics : BT.709
Matrix coefficients : BT.709

 Wrestling UWN Primetime Live

Audio
ID : 2
Format : AC-3
Format/Info : Audio Coding 3
Commercial name : Dolby Digital
Codec ID : A_AC3
Duration : 1 h 27 min
Bit rate mode : Constant
Bit rate : 256 kb/s
Channel(s) : 2 channels
Channel layout : L R
Sampling rate : 48.0 kHz
Frame rate : 31.250 FPS
Compression mode : Lossy
Delay relative to video : -5 ms
Stream size : 160 MiB (3%)
Title : Stereo
Service kind : Complete Main
Default : Yes
Forced : No

 

 Wrestling UWN Primetime Live

[/su_expand]

 

 

Watch online

 

Server 1

 

 

 

 

Watch Wrestling UWN Primetime Live

 

 

 

 

Server-2

 

 

 

 

watch now

 

 

 

 

Uploaded By Site DX-TV.com

Watch Wrestling UWN  Live

Download Links with premium High Speed   

 

 

 

 

dropapk.to

 

 

 

nitroflare.com

 

 

 

rapidgator.net

 

 

 

 

 

https://dx-tv.com/iwa-mid-southroyal-day-of-death-2014-webdl3vil/

Leave a Reply

Your email address will not be published. Required fields are marked *

This site uses Akismet to reduce spam. Learn how your comment data is processed.