Watch Wrestling UWN Primetime Live 2020 11 17 Online /720p

United Wrestling Network Primetime Live 2020 11 17 HDTV Star/ 720p DX-TV

UWN Primetime Live 2020 11 17

 

 UWN Primetime Live 2020 11 17

 

Watch Wrestling UWN Primetime Live 2020 11 17 Online /720p

 

 

[su_expand more_text=”Show More Info” less_text=”Close all Info” height=”30″ text_color=”#000000″ link_color=”#e25f8b” link_style=”button” more_icon=”icon: arrow-down” less_icon=”icon: arrow-up”]

 

Complete name : United.Wrestling.Network.Primetime.2020.11.17.HDTV.x264-Star.mp4
Format : MPEG-4
Format profile : Base Media
Codec ID : mp42
File size : 924 MiB
Duration : 1 h 28 min
Overall bit rate : 1 462 kb/s

UWN Primetime Live 2020 11 17

Video
ID : 1
Format : AVC
Duration : 1 h 28 min
Bit rate : 1 300 kb/s
Width : 720 pixels
Height : 480 pixels
Display aspect ratio : 16:9
Original display aspect rat : 16:9
Frame rate mode : Constant
Frame rate : 29.970 FPS
Standard : NTSC
Color space : YUV
Chroma subsampling : 4:2:0
Bit depth : 8 bits
Scan type : Progressive
Bits/(Pixel*Frame) : 0.126
Stream size : 817 MiB
Color range : Limited
Color primaries : BT.709
Transfer characteristics : BT.709
Matrix coefficients : BT.709
Codec configuration box : avc

UWN Primetime Live 2020 11 17

Audio
ID : 2
Format : AAC LC
Format/Info : Advanced Audio
Codec ID : mp4a-40-2
Duration : 1 h 28 min
Bit rate mode : Constant
Bit rate : 161 kb/s
Channel(s) : 2 channels
Channel layout : L R
Sampling rate : 48.0 kHz
Frame rate : 46.875 FPS
Compression mode : Lossy
Stream size : 101 MiB (11%)
Title : Stereo
Default : Yes
Alternate group : 1

UWN Primetime Live 2020 11 17

Complete name : United.Wrestling.Network.Primetime.2020.11.17.720p.HDTV.x264-Star.mkv
Format : Matroska
Format version : Version 4
File size : 3.19 GiB
Duration : 1 h 28 min
Overall bit rate : 5 168 kb/s
Writing library : Lavf58.29

Video
ID : 1
Format : AVC
Duration : 1 h 28 min
Bit rate : 5 000 kb/s
Width : 1 280 pixels
Height : 720 pixels
Display aspect ratio : 16:9
Frame rate mode : Constant
Frame rate : 29.970 FPS
Color space : YUV
Chroma subsampling : 4:2:0
Bit depth : 8 bits
Scan type : Progressive
Bits/(Pixel*Frame) : 0.181
Stream size : 3.01 GiB
Color range : Limited
Color primaries : BT.709
Transfer characteristics : BT.709
Matrix coefficients : BT.709

UWN Primetime Live 2020 11 17

Audio
ID : 2
Format : AC-3
Format/Info : Audio
Commercial name : Dolby
Codec ID : A_AC3
Duration : 1 h 28 min
Bit rate mode : Constant
Bit rate : 192 kb/s
Channel(s) : 2 channels
Channel layout : L R
Sampling rate : 48.0 kHz
Frame rate : 31.250 FPS
Compression mode : Lossy
Delay relative to video : -5 ms
Stream size : 121 MiB
Title : Stereo
Service kind : Complete Main
Default : Yes
Forced : No

 

 

Watch Wrestling UWN Primetime Live 2020 11 17 Online /720p

 

 

[/su_expand]

 

 

Watch online

 

 

Server 1

 

 

 

 

 

 

 

 

Server-2

 

 

 

 

 

UWN Primetime Live 2020 11 17

 

 

Server–3

 

 

 

 

 

 

 

 

Uploaded By Site DX-TV.com

 

 

 

 

Download Free Links with normal and high Speed [ more 14 hosts ]  

 

[su_expand more_text=”Show Hosts Info” less_text=”Close all Info” height=”30″ text_color=”#000000″ link_color=”#e25f8b” link_style=”button” more_icon=”icon: arrow-down” less_icon=”icon: arrow-up”]

 

 Primetime Live 2020 11 17

hexupload.net – clicknupload.co – www.multiup.org

– uptobox.com – anonfiles.com – userscloud.com –

dropapk.to alfafile.net – ddownload.com – rockfile.co

– 1fichier.com – filedown.org – katfile.com – filerio.in

 

 

[/su_expand]

 

400p

 

http://shrt10.com/kwy6LN
http://shrt10.com/g7RonyREV
http://shrt10.com/8w5MEyr
http://shrt10.com/cRPs4LQ
http://shrt10.com/p85TDX
http://shrt10.com/FF5QhGoL5
http://shrt10.com/fyfwGqfS
http://shrt10.com/1Qh7fmuk1

 

720p

 

http://shrt10.com/1exel
http://shrt10.com/axkRTXv25
http://shrt10.com/b4xSZ22Ju
http://shrt10.com/BWOpeOc
http://shrt10.com/b4jwt6d
http://shrt10.com/Um4uq

 

Download Links with premium High Speed   

UWN Primetime Live 2020 11 17

 

 

 

dropapk.to

http://shrt10.com/BHpb0lezw
http://shrt10.com/QAe94SuH

 

 

nitroflare.com

http://shrt10.com/5kyG6
http://shrt10.com/xS2R96S

 

 

rapidgator.net

http://shrt10.com/ok22w1
http://shrt10.com/fzofM

 

 

uploaded.net

http://shrt10.com/BLEWcPdN
http://shrt10.com/hns7wWH

 

 

uploadgig.com

http://shrt10.com/3tsnc8Dc4
http://shrt10.com/LcekC

 

 

 

 

dx-tv.com

 

urlfree.net

Leave a Reply

Your email address will not be published. Required fields are marked *

This site uses Akismet to reduce spam. Learn how your comment data is processed.