Watch Wrestling UWN Primetime Live 2020 10 27 Full Show

Watch United Wrestling Network Primetime 2020 10 27 HDTV Star DX-TV

UWN Primetime Live

 

 WWE RAW
 


 

 

Watch Wrestling UWN Primetime Live 2020 10 27 Full Show

 

On this episode of The Push, we sit down with the man behind the R3 persona from Championship Wrestling From Arizona,

to talk about his career, about the “Agents of Chaos” tag-team with Evan Daniels, and about his future goals in the United Wrestling Network.

This week on The Push, we sit down with Alex Salyers from Championship Wrestling From Arizona to find out who the “Man in Black” really is.

UWN Primetime Live

Complete name : United.Wrestling.Network.Primetime.2020.10.27.HDTV.x264-Star.mp4
Format : MPEG-4
Format profile : Base Media
Codec ID : mp42
File size : 916 MiB
Duration : 1 h 27 min
Overall bit rate : 1 463 kb/s

UWN Primetime Live

Video
ID : 1
Format : AVC
Duration : 1 h 27 min
Bit rate : 1 300 kb/s
Width : 720 pixels
Height : 480 pixels
Display aspect ratio : 16:9
Original display aspect rat : 16:9
Frame rate mode : Constant
Frame rate : 29.970 FPS
Standard : NTSC
Color space : YUV
Chroma subsampling : 4:2:0
Bit depth : 8 bits
Scan type : Progressive
Bits/(Pixel*Frame) : 0.126
Stream size : 810 MiB (88%)
Color range : Limited
Color primaries : BT.709
Transfer characteristics : BT.709
Matrix coefficients : BT.709
Codec configuration box : avcC

UWN Primetime Live

Audio
ID : 2
Format : AAC LC
Format/Info : Advanced Audio
Codec ID : mp4a-40-2
Duration : 1 h 27 min
Bit rate mode : Constant
Bit rate : 161 kb/s
Channel(s) : 2 channels
Channel layout : L R
Sampling rate : 48.0 kHz
Frame rate : 46.875 FPS
Compression mode : Lossy
Stream size : 101 MiB (11%)
Title : Stereo
Default : Yes

 

 

 

Watch Wrestling UWN Primetime Live 2020 10 27 Full Show

 

Watch online

 

 

Server 1

 

 

 

 

UWN Primetime Live

 

 

 

 

Server-2

 

 

 

watch now

 

 

 

 

 

Uploaded By Site DX-TV.com

 

 

 

 

Download Free Links with normal and high Speed [ more 14 hosts ]  

 

[su_expand more_text=”Show Hosts Info” less_text=”Close all Info” height=”30″ text_color=”#000000″ link_color=”#e25f8b” link_style=”button” more_icon=”icon: arrow-down” less_icon=”icon: arrow-up”]

 

UWN Primetime Live

hexupload.net – clicknupload.co – www.multiup.org – uptobox.com – anonfiles.com – userscloud.com –

 

 

[/su_expand]

 

 

http://shrt10.com/EKDwxDu1t
http://shrt10.com/skh4qN4
http://shrt10.com/C4u18RFd5
http://shrt10.com/YJyfvu
http://shrt10.com/eyM40QwJC
http://shrt10.com/D3RrnuDN
http://shrt10.com/mTpnTt6C
http://shrt10.com/hQNVtd
http://shrt10.com/RkyA6q
http://shrt10.com/t3N7s0
http://shrt10.com/QKAJN5
http://shrt10.com/ZVYOkWN

 

 

 

UWN Primetime Live

Download Links with premium High Speed   

 

 

 

 

dropapk.to

 

 

 

nitroflare.com

 

 

 

rapidgator.net

 

 

 

uploaded.net

 

 

 

uploadgig.com

 

 

UWN Primetime Live

 

 

dx-tv.com

 

urlfree.net