Watch Wrestling TJPW Fall Tour 2020 11 28 Free DX-TV

Watch Wrestling TJPW Fall Tour 2020 11 28 WOMM Free DX-TV

TJPW Fall Tour 2020

 

 TJPW Fall Tour 2020

 

[su_expand more_text=”Show More Info” less_text=”Close all Info” height=”30″ text_color=”#000000″ link_color=”#e25f8b” link_style=”button” more_icon=”icon: arrow-down” less_icon=”icon: arrow-up”]

Complete name : 2020.11.28.TJPW.Fall.Tour.2020.WOMM.mp4
Format : MPEG-4
Format profile : Base Media
Codec ID : isom
File size : 1.36 GiB
Duration : 1 h 37 min
Overall bit rate mode : Variable
Overall bit rate : 1 988 kb/s
Writing application : Lavf58.45.100

TJPW Fall Tour 2020

Video
ID : 1
Format : AVC
Duration : 1 h 37 min
Bit rate mode : Variable
Bit rate : 1 800 kb/s
Width : 1 280 pixels
Height : 720 pixels
aspect ratio : 16:9
Frame rate mode : Constant
Frame rate : 30.000 FPS
Color space : YUV
Chroma subsampling : 4:2:0
Bit depth : 8 bits
Scan type : Progressive
Bits/(Pixel*Frame) : 0.065
Stream size : 1.22 GiB
Codec configuration box : avc

TJPW Fall Tour 2020

Audio
ID : 2
Format : AAC LC
Format/Info : Advanced Audio
Codec ID : mp4a-40-2
Duration : 1 h 37 min
Bit rate mode : Constant
Bit rate : 192 kb/s
Channel(s) : 2 channels
Channel layout : L R
Sampling rate : 44.1 kHz
Frame rate : 43.066 FPS (1024 SPF)
Compression mode : Lossy
Stream size : 134 MiB (10%)
Default : Yes
Alternate group : 1

TJPW Fall Tour 2020

Name of the event: TJPW Fall Tour ’20 ~ WOMM (Wrestling Of My Mind) ~
Date: 28.11.2020
Promotion: Tokyo Joshi Pro-Wrestling
Type: TV-Show
Location: Osaka, Japan
Arena: Azalea Taisho Hall
Broadcast type: Live
Broadcast date: 01.12.2020
TV station/network: Wrestle Universe

 

 

[/su_expand]

 

 

Watch online

 

Server 1

 

 

 

 

TJPW Fall Tour 2020

 

 

 

 

Server-2

 

 

 

 

watch now

 

 

 

 

Uploaded By Site DX-TV.com

watch wrestling TJPW Fall Tour 2020

 

Download Links with premium High Speed   

 

 

 

 

dropapk.to

 

 

 

nitroflare.com

 

 

 

rapidgator.net

 

 

 

uploaded.net

 

 

 

uploadgig.com

 

 

https://dx-tv.com/free-aew-all-out-2020-ppv-720p-online/

Leave a Reply

Your email address will not be published. Required fields are marked *

This site uses Akismet to reduce spam. Learn how your comment data is processed.