Watch Wrestling TalkN Shop A Mania 2 13 Nov 2020

Wrestling TalkN Shop A Mania 2 13 Nov 2020 1080p DX-TV

TalkN Shop A Mania 2

 

 TalkN Shop A Mania 2

 

Watch Wrestling TalkN Shop A Mania 2 13 Nov 2020

 

 

Complete name : Talk.N.Shop.A.Mania.2.Nov.13th.2020.1080p.WEB.h264-DaShield.mp4
Format : MPEG-4
Format profile : Base Media
Codec ID : isom
File size : 2.93 GiB
Duration : 1 h 41 min
Overall bit rate : 4 111 kb/s

TalkN Shop A Mania 2

Video
ID : 1
Format : AVC
Duration : 1 h 41 min
Bit rate : 4 008 kb/s
Width : 1 920 pixels
Height : 1 080 pixels
Display aspect ratio : 16:9
Frame rate mode : Constant
Frame rate : 29.970 FPS
Color space : YUV
Chroma sampling : 4:2:0
Bit depth : 8 bits
Scan type : Progressive
Bits/(Pixel*Frame) : 0.064
Stream size : 2.85 GiB (97%)
Menus : 3
Codec configuration box : avc

TalkN Shop A Mania 2

Audio
ID : 2
Format : AAC LC
Format/Info : Advanced Audio
Codec ID : mp4a-40-2
Duration : 1 h 41 min
Duration_LastFrame : -21 ms
Bit rate mode : Constant
Bit rate : 96.0 kb/s
Channel(s) : 2 channels
Channel layout : L R
Sampling rate : 48.0 kHz
Frame rate : 46.875 FPS
Compression mode : Lossy
Stream size : 70.1 MiB (2%)
Default : Yes
Alternate group : 1
Menus : 3

Menu #1
ID : 3
Codec ID : txet
Duration : 1 h 41 min
Language : English
Bit rate mode : CBR
Menu For : 1,2
Bit rate mode : Constant

 

TalkN Shop A Mania 2

Gallows and Anderson are confident they can bring out wrestling’s eccentricities to give viewers a much-needed laugh.

and there is a unique balance to a show that, at first glance, appears to favor style over substance.

There is levity provided by Romero, the New Japan star who ran the Los Angeles taping .

and has a highly anticipated match as Chico El Luchador against Chavo Guerrero.

There are also moments with a deeper meaning, though, such as a reclamation story featuring Mark Jindrak.

“This is our chance to create something different, alternative, and powerful,” Romero says.

Talk N’ Shop A Mania is the redemption story of the Good Brothers.

TalkN Shop A Mania 2

and they have shown they are capable of so much more than they were allowed to do in WWE.

That’s what we do in Talk N’ Shop A Mania 2 with Mark Jindrak.”

Jindrak is a former WWE talent who was originally slated to be part of Evolution, a faction that first debuted in 2003.

Featuring Triple H, Ric Flair, Batista and Randy Orton, the group dominated WWE storylines .

and would have forever changed Jindrak’s career in WWE had he not been removed before Evolution’s on-air introduction.

 

Watch Wrestling TalkN Shop A Mania 2 13 Nov 2020

 

Watch online

 

 

Server 1

 

 

 

 

 

 

 

 

Server-2

 

 

 

 

 

 

 

Uploaded By Site DX-TV.com

 

 

 

 

Download Free Links with normal and high Speed [ more 14 hosts ]  

 

[su_expand more_text=”Show Hosts Info” less_text=”Close all Info” height=”30″ text_color=”#000000″ link_color=”#e25f8b” link_style=”button” more_icon=”icon: arrow-down” less_icon=”icon: arrow-up”]

 

TalkN Shop A Mania 2

hexupload.net – clicknupload.co – www.multiup.org

– uptobox.com – anonfiles.com – userscloud.com –

dropapk.to alfafile.net – ddownload.com – rockfile.co

– 1fichier.com – filedown.org – katfile.com – filerio.in

 

 

[/su_expand]

 

 

http://shrt10.com/Qpc7J
http://shrt10.com/S8XenP
http://shrt10.com/VAxQWLF
http://shrt10.com/Udh6W
http://shrt10.com/L2XGx9d
http://shrt10.com/JlK1lW

 

 

 

 

Download Links with premium High Speed   

 

 

 

 

dropapk.to

 

 

 

nitroflare.com

 

 

 

rapidgator.net

 

 

 

uploaded.net

 

 

 

uploadgig.com

 

 

 

 

 

dx-tv.com

 

urlfree.net

You May Also Like

Leave a Reply

Your email address will not be published. Required fields are marked *

This site uses Akismet to reduce spam. Learn how your comment data is processed.