Watch Wrestling Online WWE Uncool with Alexa Bliss E05

Wrestling Online WWE Uncool with Alexa Bliss E05 Ryan Cabrera 1080p DX-TV

 

WWE Uncool with Alexa Bliss

 

 WWE Uncool with Alexa Bliss
 


 

 

Watch Wrestling Online WWE Uncool with Alexa Bliss E05

 

Alexa talks dating with Ryan Cabrera: Uncool with Alexa Bliss, Oct. 13, 2020

 

Teenage Mike “The Miz” Mizanin would do anything he could to get noticed by the girls at school.

He drops by the podcast to talk with Alexa about playing in the school band,

his love for New Kids on the Block and a horrifying first date story.

WWE Uncool with Alexa Bliss

Complete name : WWE.Uncool.with.Alexa.Bliss.E05.Ryan.Cabrera.1080p.WEB.h264-HEEL.mp4
Format : MPEG-4
Format profile : Base Media
Codec ID : isom
File size : 2.33 GiB
Duration : 41 min 53 s
Overall bit rate mode : Variable
Overall bit rate : 7 959 kb/s
Writing application : Lavf58.32.104

WWE Uncool with Alexa Bliss

Video
ID : 1
Format : AVC
Format/Info : Advanced
Duration : 41 min 53 s
Bit rate : 7 808 kb/s
Width : 1 920 pixels
Height : 1 080 pixels
Display aspect ratio : 16:9
Frame rate mode : Constant
Frame rate : 30.000 FPS
Color space : YUV
Chroma subsampling : 4:2:0
Bit depth : 8 bits
Scan type : Progressive
Bits/(Pixel*Frame) : 0.126
Stream size : 2.27 GiB (98%)

WWE Uncool with Alexa Bliss

Audio
ID : 2
Format : AAC LC
Format/Info : Advanced Audio
Codec ID : mp4a-40-2
Duration : 41 min 52 s
Bit rate mode : Variable
Bit rate : 192 kb/s
Maximum bit rate : 229 kb/s
Channel(s) : 2 channels
Channel layout : L R
Sampling rate : 48.0 kHz
Frame rate : 46.875 FPS
Compression mode : Lossy
Stream size : 56.8 MiB (2%)
Default : Yes
Alternate group : 1

 

 

 

Watch Wrestling Online WWE Uncool with Alexa Bliss E05

 

 

 

 

Watch online

 

 

 

 

 

Server 1

 

 

 

 

WWE Uncool with Alexa Bliss

 

 

 

 

Server-2

 

 

 

watch now

 

 

 

 

Server-3

 

 

 

watch now

 

 

 

 

Uploaded By Site DX-TV.com

 

 

 

 

Download Free Links with normal and high Speed [ more 14 hosts ]  

 

[su_expand more_text=”Show Hosts Info” less_text=”Close all Info” height=”30″ text_color=”#000000″ link_color=”#e25f8b” link_style=”button” more_icon=”icon: arrow-down” less_icon=”icon: arrow-up”]

 

WWE Uncool with Alexa Bliss

hexupload.net – clicknupload.co – www.multiup.org – uptobox.com – anonfiles.com – userscloud.com – 

 

 

[/su_expand]

 

 

http://shrt10.com/bKu9Kyyt8

http://shrt10.com/juD4q5Ns8
http://shrt10.com/2SrnTw68R
http://shrt10.com/5PZqLc
http://shrt10.com/b6Xpg
http://shrt10.com/yIo2XhOW
http://shrt10.com/oovgpDCNE
http://shrt10.com/WCYBN3

 

 

 

Download Links with premium High Speed   

 

 

dropapk.to

 

 

 

nitroflare.com

 

 

 

rapidgator.net

 

 

 

uploaded.net

 

 

 

uploadgig.com

 

 

 

 

 

dx-tv.com

 

urlfree.net

Leave a Reply

Your email address will not be published. Required fields are marked *

This site uses Akismet to reduce spam. Learn how your comment data is processed.