Watch Wrestling Online WWE Story Time S04E03

WWE Story Time S04E03 Road Woes 1080p DX-TV

 

Watch Wrestling Online WWE

 

 Watch Wrestling Online WWE
 


 

 

Watch Wrestling Online WWE Story Time S04E03

 

 

A new season of WWE Story Time, the animated series that recreates sports-entertainment’s most absurd stories .

as told by your favorite Superstars, is coming to the Free Version of WWE Network.

Season four kicks off on Friday, Oct. 9, with a new episode available on demand every week.

Along with more off-the-wall, never-before-heard stories, the upcoming season of WWE Story Time .

will feature the cartoon debuts of several Superstars and Legends.

Jerry “The King” Lawler will lend his voice as the show’s new narrator.

He picks up the mantle left by incomparable WWE Hall of Famer “Mean” Gene Okerlund,

Watch Wrestling Online WWE

who hosted the first three seasons before his passing in 2019.

“I feel honored that they called on me take ‘Mean’ Gene’s place as the host,”

Lawler told “Stone Cold” Steve Austin during his recent appearance on The Broken Skull Sessions.

Kevin Owens, AJ Styles, Seth Rollins, Xavier Woods, Ruby Riott and Bret “Hit Man”

Hart are among those appearing on the show in animated form for the first time,

joining the ranks of illustrated raconteurs like Big Show, The Miz, Christian and Mark Henry.

Don’t miss season four of WWE Story Time, premiering Oct. 9 on the Free Version of WWE Network

Watch Wrestling Online WWE

Complete name : WWE.Story.Time.S04E03.Road.Woes.1080p.WEBRip.h264-TJ.mp4
Format : MPEG-4
Format profile : Base Media
Codec ID : isom
File size : 940 MiB
Duration : 17 min 0 s
Overall bit rate mode : Variable
Overall bit rate : 7 728 kb/s
Writing application : Lavf58.25.100

Watch Wrestling Online WWE

Video
ID : 1
Format : AVC
Duration : 17 min 0 s
Bit rate : 7 808 kb/s
Width : 1 920 pixels
Height : 1 080 pixels
Display aspect ratio : 16:9
Frame rate mode : Constant
Frame rate : 30.000 FPS
Color space : YUV
Chroma subsampling : 4:2:0
Bit depth : 8 bits
Scan type : Progressive
Bits/(Pixel*Frame) : 0.126
Stream size : 916 MiB (97%)

Watch Wrestling Online WWE

Audio
ID : 2
Format : AAC LC
Format/Info : Advanced Audio
Codec ID : mp4a-40-2
Duration : 17 min 0 s
Bit rate mode : Variable
Bit rate : 192 kb/s
Maximum bit rate : 211 kb/s
Channel(s) : 2 channels
Channel layout : L R
Sampling rate : 48.0 kHz
Frame rate : 46.875 FPS (1024 SPF)
Compression mode : Lossy
Stream size : 23.5 MiB (3%)
Default : Yes
Alternate group : 1

 

 

 

Watch Wrestling Online WWE Story Time S04E03

 

 

 

 

Watch online

 

 

 

 

 

Server 1

 

 

 

 

Watch Wrestling Online WWE

 

 

 

Server-3

 

 

 

watch now

 

 

 

 

Uploaded By Site DX-TV.com

 

 

 

 

Download Free Links with normal and high Speed [ more 14 hosts ]  

 

[su_expand more_text=”Show Hosts Info” less_text=”Close all Info” height=”30″ text_color=”#000000″ link_color=”#e25f8b” link_style=”button” more_icon=”icon: arrow-down” less_icon=”icon: arrow-up”]

 Wrestling Online WWE

 

hexupload.net – clicknupload.co – www.multiup.org – uptobox.com – anonfiles.com – userscloud.com –

dropapk.to alfafile.net – ddownload.com – rockfile.co – 1fichier.com – filedown.org – katfile.com – filerio.in

 

 

[/su_expand]

 

 

 

http://shrt10.com/xWnW9
http://shrt10.com/bVxi41
http://shrt10.com/icMtGjZp
http://shrt10.com/sWLiX
http://shrt10.com/W4TLzksz
http://shrt10.com/Xf5nzUoWe
http://shrt10.com/m5qR1sFe
http://shrt10.com/1TQFY9dS
http://shrt10.com/RXvWF
http://shrt10.com/zXykz
http://shrt10.com/tQctV

http://shrt10.com/iaGTd6ATT

 

 

Download Links with premium High Speed   

 

 

 

 

 

rapidgator.net

 

 

 

 

 

dx-tv.com

 

urlfree.net

Leave a Reply

Your email address will not be published. Required fields are marked *

This site uses Akismet to reduce spam. Learn how your comment data is processed.