Watch Wrestling Online NJPW Strong Ep12 English /Japanese

Online NJPW Strong Ep12 English /Japanese 2020 10 23 720p DX-TV

Watch Wrestling Online NJPW

 

 Watch Wrestling Online NJPW
 


 

 

Watch Wrestling Online NJPW Strong Ep12 English /Japanese

 

Korakuen sees a stormer of a main event; YOSHI-HASHI moves to challenge tag champions

 

The first night of the Road to Power Struggle tour on October 23 saw the NEVER 6-Man Tag Team Championships defended in the main event, DOUKI looking for his first title in NJPW as he sided with Zack Sabre Junior and Taichi against the CHAOS representing champions of Hirooki Goto, Tomohiro Ishii and YOSHI-HASHI. 

After a war of words backstage and online, an angered YOSHI-HASHI exploded out of the blocks against DOUKI, but just as he got the upper hand, his Suzuki-Gun teammates entered the fray. As Dangerous Tekkers took Ishii and Goto into the guardrails, DOUKI took control of YOSHI-HASHI with his steel pipe. 

Watch Wrestling Online NJPW

After sustained offense the Headhunter fired back with a vertical suplex, bringing in Hirooki Goto, who caught a ZSJ PK and landed Ushigoroshi. Tomohiro Ishii proved a physical weak link for the trio however, and when he entered the ring with knees still damaged from  the G1 Climax final weekend, it was only a matter of time before Taichi and Sabre went on the offense. Goto and YOSHI-HASHI did their best to prevent a triple team on Ishii, but when DOUKI landed a pipe shot to the back of the kneecap on the floor, Dangerous Tekkers vowed to break Ishii’s leg altogether. 

Double team Dragon Screws led to a Last Ride, for Taichi, and when Ishii kicked out, he found himself right in a knee bar. The Stone Pitbull escaped however, and landed a desperation concrete headbutt before tagging a recovered YOSHI-HASHI back in. DOUKI traded with the Headhunter, but when he seemed out powered straight up, Taichi was there to pull YOSHI-HASHI outside, leading to a DOUKI Bomb out to a pile of humanity on the floor.

Watch Wrestling Online NJPW

 

Complete name : NJPW.2020.10.23.Strong.Episode.12.ENGLISH.720p.WEB.h264-LATE.mkv
Format : Matroska
Format version : Version 4
File size : 818 MiB
Duration : 56 min 18 s
Overall bit rate : 2 032 kb/s

Video
ID : 1
Format : AVC
Duration : 56 min 18 s
Bit rate : 1 904 kb/s
Width : 1 280 pixels
Height : 720 pixels
Display aspect ratio : 16:9
Frame rate mode : Constant
Frame rate : 30.000 FPS
Color space : YUV
Chroma subsampling : 4:2:0
Bit depth : 8 bits
Scan type : Progressive
Bits/(Pixel*Frame) : 0.069
Stream size : 767 MiB (94%)
Forced : No

Watch Wrestling Online NJPW

Audio
ID : 2
Format : AAC LC
Format/Info : Advanced Audio
Codec ID : A_AAC-2
Duration : 56 min 18 s
Bit rate : 126 kb/s
Channel(s) : 2 channels
Channel layout : L R
Sampling rate : 44.1 kHz
Frame rate : 43.066 FPS
Compression mode : Lossy
Delay relative to video : -23 ms
Stream size : 50.6 MiB (6%)
Language : English
Default : Yes
Forced : No

 

Watch Wrestling Online NJPW Strong Ep12 English /Japanese

 

 

Watch online

 

 

Server 1

 

 

 

 

Watch Wrestling Online NJPW

watch now

 

 

 

 

Server-3

 

 

 

watch now

watch now

 

 

 

 

Uploaded By Site DX-TV.com

 

 

 

 

Download Free Links with normal and high Speed [ more 14 hosts ]  

 

[su_expand more_text=”Show Hosts Info” less_text=”Close all Info” height=”30″ text_color=”#000000″ link_color=”#e25f8b” link_style=”button” more_icon=”icon: arrow-down” less_icon=”icon: arrow-up”]

 

 

hexupload.net – clicknupload.co – www.multiup.org – uptobox.com – anonfiles.com – userscloud.com –

 

 

[/su_expand]

 

English

http://shrt10.com/fOoRqT
http://shrt10.com/vqMmJp
http://shrt10.com/CiOmXpDpQ
http://shrt10.com/BiPPEw0
http://shrt10.com/wg9cIvn
http://shrt10.com/njG8F
http://shrt10.com/6fmIJ
http://shrt10.com/vNolK
http://shrt10.com/CFEe4
http://shrt10.com/WxAC7
http://shrt10.com/oGpwK

 

Watch Wrestling Online NJPW

Japanese

http://shrt10.com/lmWOfy
http://shrt10.com/GW9Iwr
http://shrt10.com/1GC3u4
http://shrt10.com/4mUH6
http://shrt10.com/4RmLkfx
http://shrt10.com/HzEW1
http://shrt10.com/yaboBpLz
http://shrt10.com/vMkucJ8V
http://shrt10.com/VdTT2
http://shrt10.com/brt07
http://shrt10.com/u8l406
http://shrt10.com/91PoHit

 

 

Download Links with premium High Speed   

 

 

 

 

dropapk.to

http://shrt10.com/sFU3oUW
http://shrt10.com/2Bfqb

 

 

nitroflare.com

http://shrt10.com/55Palt
http://shrt10.com/C6PnP3vr9

 

 

rapidgator.net

http://shrt10.com/wGiGsn67
http://shrt10.com/6ixHR5Xv

 

 

uploaded.net

http://shrt10.com/rAHPi
http://shrt10.com/aiKrm

 

 

uploadgig.com

http://shrt10.com/5ON8M
http://shrt10.com/hZ24W5fJV

 

 

 

 

dx-tv.com

 

urlfree.net

Leave a Reply

Your email address will not be published. Required fields are marked *

This site uses Akismet to reduce spam. Learn how your comment data is processed.