Watch Wrestling Online NJPW 02 12 2020 World Tag League

Watch Wrestling Online NJPW 02 12 2020 World Tag League Japan Day 7 DX-TV

Watch Wrestling Online NJPW World

 Watch Wrestling NJPW World

 

[su_expand more_text=”Show More Info” less_text=”Close all Info” height=”30″ text_color=”#000000″ link_color=”#e25f8b” link_style=”button” more_icon=”icon: arrow-down” less_icon=”icon: arrow-up”]

 

Complete name : NJPW.2020.12.02.Best.Of.The.Super.Jr.27.Day.7.JAPANESE.WEB.h264-LATE.mkv
Format : Matroska
Format version : Version 4
File size : 2.07 GiB
Duration : 2 h 32 min
Overall bit rate : 1 950 kb/s

Watch Wrestling Online NJPW World

Video
ID : 1
Format : AVC
Duration : 2 h 32 min
Bit rate : 1 848 kb/s
Width : 960 pixels
Height : 540 pixels
Display aspect ratio : 16:9
Frame rate mode : Constant
Frame rate : 30.000 FPS
Color space : YUV
Chroma subsampling : 4:2:0
Bit depth : 8 bits
Scan type : Progressive
Bits/(Pixel*Frame) : 0.119
Stream size : 1.96 GiB (95%)
Default : Yes
Forced : No
Color range : Limited
Color primaries : BT.601 PAL
Transfer characteristics : BT.601
Matrix coefficients : BT.470

Watch Wrestling Online NJPW World

Audio
ID : 2
Format : AAC LC
Format/Info : Advanced Audio
Codec ID : A_AAC-2
Duration : 2 h 32 min
Bit rate : 99.8 kb/s
Channel(s) : 2 channels
Channel layout : L R
Sampling rate : 44.1 kHz
Frame rate : 43.066 FPS
Compression mode : Lossy
Stream size : 108 MiB (5%)
Language : English
Default : Yes
Forced : No

  Online NJPW World

Great-O-Khan has shown respect for precious few people since his appearance in THE EMPIRE, but he has expressed some admiration for EVIL in advance of this clash between one of NJPW’s most established factions and its newest.

O-Khan has gone as far as suggest that EVIL would be a good fit for THE EMPIRE, but it is BULLET CLUB colours that the King of Darkness flies, and will do so with devious authority tonight in Korakuen.

After an instant impression for the new team, THE EMPIRE hasn’t exactly been dominant in recent matches, suffering back to back losses against Dangerous Tekkers and Yano and Ishii.

EVIL and Yujiro Takahashi have had their own tribulations, withback to back losses of their own putting them on the same six point standing as THE EMPIRE.

Respect will not be in the vocabulary of this match then, as both teams need another two points at a critical stage of the league. 

Watch Wrestling Online NJPW World

1st Match: Satoshi Kojima & Tomoaki Honma vs Yuji Nagata & Yota Tsuji

A now familiar matchup kicks us off in Korakuen Hall. Yota Tsuji is still trying to defuse the certified match ender that is Kojima’s lariat,

and came very close Saturday night in Fujisawa with an intricate pinning counter, but it stillw asn’t enough. Will he come closer tonight? 

 

[/su_expand]

 

 

Watch online

 

Server 1

 

 

 

 

Watch Wrestling Online NJPW World

 

 

 

 

Server-2

 

 

 

 

watch now

 

 

 

 

Uploaded By Site DX-TV.com

 

 

 

 

Download Free Links with normal and high Speed [ more 14 hosts ]  

 

[su_expand more_text=”Show Hosts Info” less_text=”Close all Info” height=”30″ text_color=”#000000″ link_color=”#e25f8b” link_style=”button” more_icon=”icon: arrow-down” less_icon=”icon: arrow-up”]

 

 Wrestling Online NJPW World

hexupload.net – clicknupload.co – www.multiup.org

– uptobox.com – anonfiles.com – userscloud.com –

dropapk.to alfafile.net – ddownload.com – rockfile.co

– 1fichier.com – filedown.org – katfile.com – filerio.in

 

 

[/su_expand]

 

 

http://shrt10.com/Akf7As6J
http://shrt10.com/uovg1XSIU
http://shrt10.com/r6ZSJRf
http://shrt10.com/MSkdLc3z
http://shrt10.com/isp66GN
http://shrt10.com/HEeY3A9
http://shrt10.com/haCVL

 

 

 

 

Download Links with premium High Speed   

 

 

 

 

dropapk.to

 

 

 

nitroflare.com

 

 

 

rapidgator.net

 

 

 

uploaded.net

 

 

 

uploadgig.com

 

 

https://dx-tv.com/watch-nxt-takeover-31-2020-wwe-full-show-free/

Leave a Reply

Your email address will not be published. Required fields are marked *

This site uses Akismet to reduce spam. Learn how your comment data is processed.