Watch Wrestling Online GCW For The Culture 2020 10 10

GCW For The Culture 2020 10 10 720p DX-TV

 

Watch Wrestling Online GCW

 

 Watch Wrestling Online GCW
 


 

 

Watch Wrestling Online GCW For The Culture 2020 10 10

 

 

GCW 10/9/2020 For The Culture Results from The Coliseum at The Marion County Fairgrounds in Indianapolis, Indiana.

  1. Mike Outlaw def. AC Mack, Hoodfoot, Timmy Lou Retton and Zay Washington
  2. JTG def. Trey Miguel
  3. 40 Acres (PB Smooth and Tre LaMar) def. Culture SZN
  4. (Christian Casanova and Tasha Steelz) and Top Flight (Air Wolf and Angel Dorado)
  5. Pan-Afrikan World Diaspora Wrestling Championship Match: Trish Adora (c) def.
  6. Suge D to retain the Pan-Afrikan World Diaspora Wrestling Championship
  7. Calvin Tankman def. O’Shay Edwards
  8. Willow Nightingale def. Faye Jackson, Devon Monroe and Marti Belle
  9. AJ Gray def. Dezmond Xavier
  10. Lee Moriarty def. ACH
  11. AR Fox def. 2 Cold Scorpio

Watch Wrestling Online GCW

Complete name : GCW For The Culture 2020 720p WEB H264 DX-TV.mp4
Format : MPEG-4
Format profile : Base Media
Codec ID : isom
File size : 2.37 GiB
Duration : 2 h 31 min
Overall bit rate : 2 236 kb/s
Writing application : Lavf58.25.100

Watch Wrestling Online GCW

Video
ID : 1
Format : AVC
Duration : 2 h 31 min
Bit rate : 2 101 kb/s
Width : 1 280 pixels
Height : 720 pixels
Display aspect ratio : 16:9
Frame rate mode : Constant
Frame rate : 29.970 FPS
Color space : YUV
Chroma subsampling : 4:2:0
Bit depth : 8 bits
Scan type : Progressive
Bits/(Pixel*Frame) : 0.076
Stream size : 2.23 GiB (94%)
Codec configuration box : avcC

Watch Wrestling Online GCW

Audio
ID : 2
Format : AAC LC
Format/Info : Advanced Audio
Codec ID : mp4a-40-2
Duration : 2 h 31 min
Bit rate mode : Constant
Bit rate : 128 kb/s
Channel(s) : 2 channels
Channel layout : L R
Sampling rate : 48.0 kHz
Frame rate : 46.875 FPS (1024 SPF)
Compression mode : Lossy
Stream size : 139 MiB (6%)
Default : Yes
Alternate group : 1

 

 

 

Watch Wrestling Online GCW For The Culture 2020 10 10

 

 

Watch online

 

 

Server 1

 

 

 

 

watch now

 

 

 

 

Server-2

 

 

 

Watch Wrestling Online GCW

 

 

 

 

Server-3

 

 

 

Watch Wrestling Online GCW

 

 

 

 

Uploaded By Site DX-TV.com

 

 

 

 

Download Free Links with normal and high Speed [ more 14 hosts ]  

 

 

 

http://shrt10.com/hXzx7J
http://shrt10.com/QKoenkQW
http://shrt10.com/m4CncBt5
http://shrt10.com/YVWFD
http://shrt10.com/ngcLZ
http://shrt10.com/C4qFQZF
http://shrt10.com/miK4u
http://shrt10.com/GhBhdHJv
http://shrt10.com/M5XNlrswU

 

 

 

 

Download Links with premium High Speed   

 

 

 

dropapk.to

 

 

 

nitroflare.com

 

 

 

rapidgator.net

 

 

 

uploaded.net

 

 

 

uploadgig.com

 

 

 

 

 

dx-tv.com

 

urlfree.net

Leave a Reply

Your email address will not be published. Required fields are marked *

This site uses Akismet to reduce spam. Learn how your comment data is processed.