Watch Wrestling Online DDT 2021 01 09 Go To DDT Vol 1 DX

Watch Wrestling Online DDT 2021 01 09 Go To DDT Vol 1 DX-TV

Watch Wrestling Online DDT

 Watch Wrestling Online DDT

 

Download Links with premium High Speed   

 

 

nitroflare.com

http://shrt10.com/93tICO4X

 

 

rapidgator.net

http://shrt10.com/JKoVjBw

 

 

uploaded.net

 

http://shrt10.com/jR1r8i3

 

uploadgig.com

http://shrt10.com/FdQwcD1s

 

Watch Wrestling Online

 

Server 1

 

 

 

 

Watch Wrestling Online

 

 

 

 

Server-2

 

 

 

 

watch now

 

 

Uploaded By Site DX-TV.com

 

 

Complete name : DDT.2021.01.09.Go.To.DDT.Vol.1.JAPANESE.WEB.h264-LATE.mkv
Format : Matroska
Format version : Version 4
File size : 2.20 GiB
Duration : 2 h 52 min
Overall bit rate : 1 831 kb/s

Video
ID : 1
Format : AVC
Format/Info : Advanced Video
Duration : 2 h 52 min
Bit rate : 1 733 kb/s
Width : 960 pixels
Height : 540 pixels
Display aspect ratio : 16:9
Frame rate mode : Constant
Frame rate : 30.000 FPS
Color space : YUV
Chroma subsampling : 4:2:0
Bit depth : 8 bits
Scan type : Progressive
Bits/(Pixel*Frame) : 0.111
Stream size : 2.08 GiB (95%)
Default : Yes
Forced : No
Color range : Limited
Color primaries : BT.601 PAL
Transfer characteristics : BT.601
Matrix coefficients : BT.470 System B/G

Watch Wrestling Online

Audio
ID : 2
Format : AAC LC
Format/Info : Advanced Audio
Codec ID : A_AAC-2
Duration : 2 h 52 min
Bit rate : 96.0 kb/s
Channel(s) : 2 channels
Channel layout : L R
Sampling rate : 44.1 kHz
Frame rate : 43.066 FPS (1024 SPF)
Compression mode : Lossy
Stream size : 118 MiB (5%)
Language : English
Default : Yes
Forced : No

Watch Wrestling Online

Audio
ID : 2
Format : AAC LC
Format/Info : Advanced Audio
Codec ID : A_AAC-2
Duration : 2 h 52 min
Bit rate : 96.0 kb/s
Channel(s) : 2 channels
Channel layout : L R
Sampling rate : 44.1 kHz
Frame rate : 43.066 FPS (1024 SPF)
Compression mode : Lossy
Stream size : 118 MiB (5%)
Language : English
Default : Yes
Forced : No

 

Audio
ID : 2
Format : AAC LC
Format/Info : Advanced Audio
Codec ID : A_AAC-2
Duration : 2 h 52 min
Bit rate : 96.0 kb/s
Channel(s) : 2 channels
Channel layout : L R
Sampling rate : 44.1 kHz
Frame rate : 43.066 FPS (1024 SPF)
Compression mode : Lossy
Stream size : 118 MiB (5%)
Language : English
Default : Yes
Forced : No

Watch Wrestling Online

https://dx-tv.com/

Leave a Reply

Your email address will not be published. Required fields are marked *

This site uses Akismet to reduce spam. Learn how your comment data is processed.