Watch Wrestling Online DDT 14 11 2020 DDT TV Show 12

Wrestling Online DDT 14 11 2020 DDT TV Show 12 Japan DX-TV

Watch Wrestling Online DDT

 

 Watch Wrestling Online DDT

 

Wrestling Online DDT 14 11 2020 DDT TV Show 12 Japan

 

Complete name : DDT.2020.11.14.DDT.TV.Show.12.JAPANESE.WEB.h264-LATE.mkv
Format : Matroska
Format version : Version 4
File size : 1.35 GiB
Duration : 1 h 41 min
Overall bit rate : 1 910 kb/s

Watch Wrestling Online DDT

Video
ID : 1
Format : AVC
Duration : 1 h 41 min
Bit rate : 1 812 kb/s
Width : 960 pixels
Height : 540 pixels
Display aspect ratio : 16:9
Frame rate mode : Constant
Frame rate : 30.000 FPS
Color space : YUV
Chroma subsampling : 4:2:0
Bit depth : 8 bits
Scan type : Progressive
Bits/(Pixel*Frame) : 0.116
Stream size : 1.28 GiB
Default : Yes
Forced : No
Color range : Limited
Color primaries : BT.601 PAL
Transfer characteristics : BT.601
Matrix coefficients : BT.470

Watch Wrestling Online DDT

Audio
ID : 2
Format : AAC LC
Format/Info : Advanced Audio
Codec ID : A_AAC-2
Duration : 1 h 41 min
Bit rate : 96.0 kb/s
Channel(s) : 2 channels
Channel layout : L R
Sampling rate : 44.1 kHz
Frame rate : 43.066 FPS
Compression mode : Lossy
Stream size : 69.4 MiB
Language : English
Default : Yes
Forced : No

Watch Wrestling Online DDT

 

 Wrestling Online DDT 14 11 2020 DDT TV Show 12 Japan

 

Watch online

 

 

Server 1

 

 

 

 

 

 

 Wrestling Online DDT

 

Server-2

 

 

 

 

 

 

Uploaded By Site DX-TV.com

 

 

 

 

Download Free Links with normal and high Speed [ more 14 hosts ]  

 

 

 

http://shrt10.com/BWLuTEtN
http://shrt10.com/DG2g2jx
http://shrt10.com/7nakJ16c
http://shrt10.com/7ota8m
http://shrt10.com/P8YH0jXXe
http://shrt10.com/jl3lg
http://shrt10.com/ciYtR
http://shrt10.com/eJpxYmgG

 

 

 

 

Download Links with premium High Speed   

 

 

 

 

dropapk.to

 

 

 

nitroflare.com

 

 

 

rapidgator.net

 

 

 

uploaded.net

 

 

 

uploadgig.com

 

 

 

 

 

dx-tv.com

 

urlfree.net

Leave a Reply

Your email address will not be published. Required fields are marked *

This site uses Akismet to reduce spam. Learn how your comment data is processed.