Watch Wrestling Online AEW DARK 27 Oct 2020 Full Show

Wrestling Online AEW DARK 27 Oct 2020 720p Full Show DX-TV

Watch Wrestling Online AEW

 

 Watch Wrestling Online AEW
 


 

 

Watch Wrestling Online AEW DARK 27 Oct 2020 Full Show

 

 

AEW Full Gear PPV Card:

  • Jon Moxley (c) vs. Eddie Kingston – I Quit Match for the AEW World Championship

  • FTR (Cash Wheeler and Dax Harwood) (c) (with Tully Blanchard) vs. The Young Bucks (Matt Jackson and Nick Jackson)

  •  Tag Team Match for AEW Tag Team Championship

  • Darby Allin challenges for the TNT Championship

  • Matt Hardy vs. Sammy Guevara – The Elite Deletion Match

 Wrestling Online AEW

Complete name : AEW.DARK.27th.Oct.2020.720p.WEBRip.h264-TJ.mp4
Format : MPEG-4
Format profile : Base Media
Codec ID : isom
File size : 2.21 GiB
Duration : 2 h 21 min
Overall bit rate : 2 246 kb/s
Writing application : Lavf57.83

Watch Wrestling Online AEW

Video
ID : 1
Format : AVC
Duration : 2 h 21 min
Bit rate : 2 110 kb/s
Width : 1 280 pixels
Height : 720 pixels
Display aspect ratio : 16:9
Frame rate mode : Constant
Frame rate : 29.970 FPS
Color space : YUV
Chroma sampling : 4:2:0
Bit depth : 8 bits
Scan type : Progressive
Bits/(Pixel*Frame) : 0.076
Stream size : 2.08 GiB (94%)
Color range : Limited
Color primaries : BT.709
Transfer characteristics : BT.709
Matrix coefficients : BT.709
Codec configuration box : avcC

Watch Wrestling Online AEW

Audio
ID : 2
Format : AAC LC
Format/Info : Advanced Audio
Codec ID : mp4a-40-2
Duration : 2 h 21 min
Bit rate mode : Constant
Bit rate : 128 kb/s
Channel(s) : 2 channels
Channel layout : L R
Sampling rate : 44.1 kHz
Frame rate : 43.066 FPS
Compression mode : Lossy
Stream size : 129 MiB (6%)
Language : English
Default : Yes
Alternate group : 1

 

Watch Wrestling Online AEW DARK 27 Oct 2020 Full Show

 

 

Watch online

 

 

Server 1

 

 

 

 

Watch Wrestling Online AEW

 

 

 

 

Server-2

 

 

 

watch now

 

 

 

Uploaded By Site DX-TV.com

 

 

 

 

Download Free Links with normal and high Speed [ more 14 hosts ]  

 

[su_expand more_text=”Show Hosts Info” less_text=”Close all Info” height=”30″ text_color=”#000000″ link_color=”#e25f8b” link_style=”button” more_icon=”icon: arrow-down” less_icon=”icon: arrow-up”]

 

 Wrestling Online AEW

hexupload.net – clicknupload.co – www.multiup.org – uptobox.com – anonfiles.com – userscloud.com –

dropapk.to alfafile.net – ddownload.com – rockfile.co – 1fichier.com – filedown.org – katfile.com – filerio.in

 

 

[/su_expand]

 

 

 

http://shrt10.com/iV79jYGO
http://shrt10.com/wcHlc
http://shrt10.com/KJVJOdt
http://shrt10.com/1AmkOY6Mh
http://shrt10.com/Advme
http://shrt10.com/7zFx0SA
http://shrt10.com/9qs2FWYQ
http://shrt10.com/75OFIuqK

 

 

 

Download Links with premium High Speed   

 

 

 

 

dropapk.to

 

 

 

nitroflare.com

 

 

 

rapidgator.net

 

 

 

uploaded.net

 

 

 

uploadgig.com

 

 

 

 

 

dx-tv.com

 

urlfree.net

Leave a Reply

Your email address will not be published. Required fields are marked *

This site uses Akismet to reduce spam. Learn how your comment data is processed.