Watch Wrestling NOAH Premium Prelude 2020 10 28 Day 2

Wrestling NOAH Premium Prelude 2020 10 28 Day 2 DX-TV

NOAH Premium Prelude 2020

 

 NOAH Premium Prelude 2020
 

Watch Wrestling NOAH Premium Prelude 2020 10 28 Day 2

 

Name of the event: NOAH Premium Prelude 2020
Date: 28.10.2020
Promotion: Pro Wrestling NOAH
Type: TV-Show
Location: Tokyo, Japan
Arena: Korakuen Hall
Broadcast type: Live
Broadcast date: 28.10.2020
TV station/network: Wrestle Universe

NOAH Premium Prelude 2020

Complete name : NOAH.2020.10.28.Premium.Prelude.2020.Day.2.JAPANESE.WEB.h264-LATE.mkv
Format : Matroska
Format version : Version 4
File size : 2.01 GiB
Duration : 2 h 32 min
Overall bit rate : 1 894 kb/s

NOAH Premium Prelude 2020

Video
ID : 1
Format : AVC
Duration : 2 h 32 min
Bit rate : 1 796 kb/s
Width : 960 pixels
Height : 540 pixels
aspect ratio : 16:9
rate mode : Constant
Frame rate : 30.000 FPS
Color space : YUV
Chroma sampling : 4:2:0
Bit depth : 8 bits
Scan type : Progressive
Bits/(Pixel*Frame) : 0.115
Stream size : 1.91 GiB (95%)
Default : Yes
Forced : No
Color range : Limited
Color primaries : BT.601 PAL
Transfer characteristics : BT.601
Matrix coefficients : BT.470  

 Premium Prelude 2020

Audio
ID : 2
Format : AAC LC
Format/Info : Advanced  
Codec ID : A_AAC-2
Duration : 2 h 32 min
Bit rate : 96.0 kb/s
Channel(s) : 2 channels
Channel layout : L R
Sampling rate : 44.1 kHz
Frame rate : 43.066 FPS
Compression mode : Lossy
Stream size : 104 MiB (5%)
Language : English
Default : Yes
Forced : No

 

 

 

Watch Wrestling NOAH Premium Prelude 2020 10 28 Day 2

 

 

Watch online

 

 

Server 1

 

 

 

 

NOAH Premium Prelude 2020

 

 

 

 

Server-2

 

 

 

watch now

 

 

 

 

 

Uploaded By Site DX-TV.com

 

Download Free Links with normal and high Speed [ more 14 hosts ]  

 

 

http://shrt10.com/ziIhub
http://shrt10.com/ANE7Mq1
http://shrt10.com/WIUtHv0t
http://shrt10.com/2reLW
http://shrt10.com/HtQCwHz
http://shrt10.com/UNi8N6MBZ
http://shrt10.com/GL31dX
http://shrt10.com/qyjwyNtI0
http://shrt10.com/JdfYqSS0Q
http://shrt10.com/8vOu6xk

 

 

 

Download Links with premium High Speed   

 

 

 

 

dropapk.to

 

 

 

nitroflare.com

 

 

 

rapidgator.net

 

 

 

uploaded.net

 

 

 

uploadgig.com

 

 

 

 

 

dx-tv.com

 

urlfree.net

Leave a Reply

Your email address will not be published. Required fields are marked *

This site uses Akismet to reduce spam. Learn how your comment data is processed.