Watch Wrestling NJPW Super J-Cup 2020 1080p ENG DX-TV

Watch Wrestling NJPW Super J-Cup 2020 1080p English DX-TV

Watch Wrestling NJPW Super J-Cup 2020

 NJPW Super J Cup 2020

 

Download Links with premium High Speed   

 

 

dropapk.to

http://shrt10.com/0OSTCEh

 

 

nitroflare.com

http://shrt10.com/MX9G9zrZ

 

 

rapidgator.net

http://shrt10.com/iLk7Ax

 

 

uploadgig.com

http://shrt10.com/U6ovH

 

Watch Wrestling NJPW

 

Server 1

 

 

 

 

Watch Wrestling NJPW Super J-Cup

 

 

 

 

Server-2

 

 

 

 

watch now

 

 

 

 

Uploaded By Site DX-TV.com

 

 

 

[su_expand more_text=”Show More Info” less_text=”Close all Info” height=”50″ text_color=”#000000″ link_color=”#e25f8b” link_style=”button” more_icon=”icon: arrow-down” less_icon=”icon: arrow-up”]
Complete name : NJPW.2020.12.12.Super.J.Cup.2020.ENGLISH.1080p.WEB-DL.x264-Lopatar.mp4
Format : MPEG-4
Format profile : Base Media
File size : 4.82 GiB
Duration : 2 h 33 min
Overall bit rate : 4 509 kb/s
Writing application : Lavf58.29.100

Wrestling NJPW Super J-Cup 2020

Video
ID : 1
Format : AVC
Duration : 2 h 33 min
Bit rate : 4 406 kb/s
Nominal bit rate : 4 800 kb/s
Width : 1 920 pixels
Height : 1 080 pixels
Display aspect ratio : 16:9
Frame rate mode : Variable
Frame rate : 23.976 FPS
Color space : YUV
Chroma subsampling : 4:2:0
Bit depth : 8 bits
Scan type : Progressive
Bits/(Pixel*Frame) : 0.089
Stream size : 4.71 GiB (98%)
Writing library : x264 core 152

Wrestling NJPW Super J-Cup 2020

Audio
ID : 2
Format : AAC LC
Codec ID : mp4a-40-2
Duration : 2 h 33 min
Bit rate mode : Constant
Bit rate : 96.0 kb/s
Channel(s) : 2 channels
Channel layout : L R
Sampling rate : 48.0 kHz
Frame rate : 46.875 FPS (1024 SPF)
Compression mode : Lossy
Stream size : 104 MiB (2%)
Default : Yes
Alternate group : 1

Wrestling NJPW Super J-Cup

[/su_expand]

 

https://dx-tv.com/

Leave a Reply

Your email address will not be published. Required fields are marked *

This site uses Akismet to reduce spam. Learn how your comment data is processed.