Watch Wrestling NJPW Strong English /Japan Ep15 13 NOV

Wrestling NJPW Strong English /Japan Ep15 13 NOV DX-TV

NJPW Strong English

 

 NJPW Strong English

 

Watch Wrestling NJPW Strong English /Japan Ep15 13 NOV

 

Complete name : NJPW.2020.11.13.Strong.Episode.15.ENGLISH.720p.WEB.h264-LATE.mkv
Format : Matroska
Format version : Version 4
File size : 863 MiB
Duration : 59 min 21 s
Overall bit rate : 2 032 kb/s

NJPW Strong English

ID : 1
Format : AVC
Duration : 59 min 21 s
Bit rate : 1 904 kb/s
Width : 1 280 pixels
Height : 720 pixels
Display aspect ratio : 16:9
Frame rate mode : Constant
Frame rate : 30.000 FPS
Color space : YUV
Chroma subsampling : 4:2:0
Bit depth : 8 bits
Scan type : Progressive
Bits/(Pixel*Frame) : 0.069
Stream size : 809 MiB (94%)
Forced : No

NJPW Strong English

Audio
ID : 2
Format : AAC LC
Format/Info : Advanced Audio
Codec ID : A_AAC-2
Duration : 59 min 21 s
Bit rate : 125 kb/s
Channel(s) : 2 channels
Channel layout : L R
Sampling rate : 44.1 kHz
Frame rate : 43.066 FPS
Compression mode : Lossy
Delay relative to video : -23 ms
Stream size : 53.2 MiB (6%)
Language : English
Default : Yes
Forced : No

NJPW Strong English

Main event: Tama Tonga vs PJ Black 

Now confirmed for World Tag League alongside brother Tanga Loa, Tama Tonga headlines NJPW STRONG this week by testing himself outside of his tag team comfort zone. Going one on one with PJ Black, Tonga will wrestle his first singles match since New Japan Cup USA, and will have his work cut out for him against a proficient and versatile competitor in the form of Black. Who emerges on top?

3rd Match: Juice Robinson, Brody King & Karl Fredericks vs BULLET CLUB (Jay White, Tanga Loa & Chase Owens)

NJPW Strong English

Juice Robinson finally makes his long awaited Friday night debut on NJPW STRONG as he forms an impressive trio with Karl Fredericks and the power house that is Brody King. Juice and company will have their work cut out for them however as they face January 5’s Tokyo Dome headliner Jay White, Tanga Loa and Chase Owens. Will Robinson, King and Fredericks be greater than the already impressive sum of their parts? They’ll need to be to gain victory.

NJPW Strong English

2nd Match: Fred Rosser vs ‘Filthy’ Tom Lawlor

The second match of the evening sees Fred Rosser go one on one with ‘Filthy’ Tom Lawlor. An unexpected matchup that few could have predicted to take place in an NJPW ring at the start of 2020, this clash of styles will nonetheless be a thrill to watch. The classical American pro-wrestling stylings of Rosser will clash with the MMA and pro hybrid style of Tom Lawlor for a singles confrontation you do not want to miss!

 

Watch Wrestling NJPW Strong English /Japan Ep15 13 NOV

 

Watch online

 

 

Server 1

 

 

 

 

NJPW Strong English

watch now

 

NJPW Strong English

 

 

Server-2

 

 

 

NJPW Strong English

watch now

 

 

 

 

 

Uploaded By Site DX-TV.com

 

 

 

 

Download Free Links with normal and high Speed [ more 14 hosts ]  

 

 

Japan

http://shrt10.com/OicWsFoR
http://shrt10.com/Z8LHz
http://shrt10.com/9r3pKmba
http://shrt10.com/C3oPim
http://shrt10.com/15ooly
http://shrt10.com/QwSlbqM
http://shrt10.com/x8LIC
http://shrt10.com/1St41

 

English

 

http://shrt10.com/w7oqIX
http://shrt10.com/ee0lURBXH
http://shrt10.com/2GGsEd
http://shrt10.com/Ib4zrFlD
http://shrt10.com/HnY5UV
http://shrt10.com/obSCx
http://shrt10.com/RcO5Njh
http://shrt10.com/2jblp

NJPW Strong English

Download Links with premium High Speed   

 

 

 

 

dropapk.to

http://shrt10.com/zIjPzQW
http://shrt10.com/GzROtM7c

 

 

nitroflare.com

 http://shrt10.com/RvcbQ
http://shrt10.com/8P8H0iVu9

 

rapidgator.net

http://shrt10.com/VUvrWCeh
http://shrt10.com/TPYbqtTC

 

 

uploaded.net

http://shrt10.com/ZmIt9
http://shrt10.com/PDGHHTdg

 

 

uploadgig.com

http://shrt10.com/EN26I
http://shrt10.com/zHTGOWJKg

 

 

 

 

dx-tv.com

 

urlfree.net

Leave a Reply

Your email address will not be published. Required fields are marked *

This site uses Akismet to reduce spam. Learn how your comment data is processed.