Watch Wrestling MLW Fusion 115 Opera Cup Finals DX-TV

Watch Wrestling MLW Fusion 115 Lawlor vs Low Ki Opera Cup Finals 1080p DX-TV

Watch Wrestling MLW Fusion

 Watch MLW Fusion

 

Download Links with premium High Speed   

 

nitroflare.com

http://shrt10.com/Xku8vgxK

 

 

rapidgator.net

http://shrt10.com/ogyAg

 

 

uploaded.net

http://shrt10.com/2OpXiXGC

 

 

uploadgig.com

http://shrt10.com/Ca1X8HGVn

 

Watch online

 

Server 1

 

 

 

 

Watch Wrestling MLW Fusion

 

 

 

 

Server-2

 

 

 

 

watch now

 

 

Uploaded By Site DX-TV.com

 

 

 

[su_expand more_text=”Show More Info” less_text=”Close all Info” height=”50″ text_color=”#000000″ link_color=”#e25f8b” link_style=”button” more_icon=”icon: arrow-down” less_icon=”icon: arrow-up”]

Complete name : MLW Fusion 115_ Lawlor vs. Low Ki Opera Cup Finals .mp4
Format : MPEG-4
Format profile : Base Media
Codec ID : isom
File size : 1.56 GiB
Duration : 53 min 39 s
Overall bit rate : 4 163 kb/s
Performer : MLW
Recorded date : 2020
Writing application : Lavf58.39.101

Watch Wrestling MLW Fusion

Video
ID : 1
Format : AVC
Duration : 53 min 39 s
Bit rate : 4 027 kb/s
Width : 1 920 pixels
Height : 1 080 pixels
Display aspect ratio : 16:9
Frame rate mode : Constant
Frame rate : 30.000 FPS
Color space : YUV
Chroma subsampling : 4:2:0
Bit depth : 8 bits
Scan type : Progressive
Bits/(Pixel*Frame) : 0.065
Stream size : 1.51 GiB (97%)
Color range : Limited
Color primaries : BT.709
Transfer characteristics : BT.709
Matrix coefficients : BT.709
Codec configuration box : avc

Watch Wrestling MLW  

Audio
ID : 2
Format : AAC LC
Format/Info : Advanced Audio
Codec ID : mp4a-40-2
Duration : 53 min 39 s
Bit rate mode : Constant
Bit rate : 128 kb/s
Channel(s) : 2 channels
Channel layout : L R
Sampling rate : 44.1 kHz
Frame rate : 43.066 FPS (1024 SPF)
Compression mode : Lossy
Stream size : 49.1 MiB (3%)
Default : Yes
Alternate group : 1

Audio
ID : 2
Format : AAC LC
Format/Info : Advanced Audio
Codec ID : mp4a-40-2
Duration : 53 min 39 s
Bit rate mode : Constant
Bit rate : 128 kb/s
Channel(s) : 2 channels
Channel layout : L R
Sampling rate : 44.1 kHz
Frame rate : 43.066 FPS (1024 SPF)
Compression mode : Lossy
Stream size : 49.1 MiB (3%)
Default : Yes
Alternate group : 1

 Wrestling MLW Fusion

[/su_expand]

 

https://dx-tv.com/

1 thought on “Watch Wrestling MLW Fusion 115 Opera Cup Finals DX-TV

Leave a Reply

Your email address will not be published. Required fields are marked *

This site uses Akismet to reduce spam. Learn how your comment data is processed.