Watch Wrestling Free Online iMPACT Bound For Glory 2020

iMPACT Wrestling Bound For Glory 2020 HDTV NWCHD DX-TV

Watch Wrestling Free Online

 

 Bound For Glory 2020
 


 

 

Watch Wrestling Free Online Bound For Glory 2020 [iMPACT Wrestling]

 

Rohit Raju (c) vs Chris Bey vs Trey Miguel vs TJP vs Jordynne Grace vs

Willie Mack – Six Way Scramble Match for the X Division Title

Be careful what you wish for, Rohit. After weeks of him bragging about giving out championship opportunities,

then finding ways to dodge his challengers left and right, Scott D’amore has seen enough.

Most recently, it was Jordynne Grace who answered the Defeat Rohit Challenge and she did just that.

but the Desi Hitman once again found a loophole to hold on to his X-Division Title, despite losing the match.

On his way back through the curtain, he was confronted by IMPACT Wrestling’s Executive.

Vice President who announced a blockbuster match for Bound For Glory.

Here, Rohit Raju will defend the X-Division Title against TJP, Chris Bey, Trey Miguel, 

Willie Mack and Jordynne Grace in what is sure to be a chaotic 6-Way Scramble.

Will Rohit’s reign come to an end at the biggest event of the year?

Watch Wrestling Free Online

EC3 vs Moose in an Undisclosed Location

After months of mind games and psychological warfare, it all comes down to this. At Bound For Glory on October 24th, EC3 will battle Moose in an undisclosed location.

In order to move forward with his career, EC3 vowed to destroy his past and he did just that when he stole the TNA World Heavyweight Championship from Moose and tossed it off a bridge.

Now Moose is more enraged than ever and desperate to put an end to EC3 once and for all. At the biggest event of the year, who will control their narrative?

Watch Wrestling Free Online

Complete name : iMPACT.Wrestling.Bound.For.Glory.2020.HDTV.x264-NWCHD.mp4
Format : MPEG-4
Format profile : Base Media
Codec ID : mp42
File size : 1.91 GiB
Duration : 2 h 50 min
Overall bit rate mode : Variable
Overall bit rate : 1 600 kb/s

Watch Wrestling Free Online

Video
ID : 1
Format : AVC
Duration : 2 h 50 min
Bit rate : 1 400 kb/s
Width : 704 pixels
Height : 400 pixels
Display aspect ratio : 16:9
aspect rat : 16:9
Frame rate mode : Constant
Frame rate : 29.970 FPS
Color space : YUV
Chroma sampling : 4:2:0
Bit depth : 8 bits
Scan type : Progressive
Bits/(Pixel*Frame) : 0.166
Stream size : 1.67 GiB (88%)
Color range : Limited
Color primaries : BT.709
Transfer characteristics : BT.709
Matrix coefficients : BT.709
Codec configuration box : avcC

Watch Wrestling Free Online

Audio
ID : 2
Format : AAC LC
Format/Info : Advanced Audio
Codec ID : mp4a-40-2
Duration : 2 h 50 min
Bit rate mode : Variable
Bit rate : 192 kb/s
Channel(s) : 2 channels
Channel layout : L R
Sampling rate : 48.0 kHz
Frame rate : 46.875 FPS (1024 SPF)
Compression mode : Lossy
Stream size : 235 MiB (12%)
Title : Stereo / Stereo
Language : English
Default : Yes
Alternate group : 1

 

Watch Wrestling Free Online Bound For Glory 2020 [iMPACT Wrestling]

 

 

Watch online

 

 

 

Server 1

 

 

 

 

Watch Wrestling Free Online

 

 

 

 

Server-3

 

 

 

watch now

 

 

 

 

Uploaded By Site DX-TV.com

 

 

 

 

Download Free Links with normal and high Speed [ more 14 hosts ]  

 

[su_expand more_text=”Show Hosts Info” less_text=”Close all Info” height=”30″ text_color=”#000000″ link_color=”#e25f8b” link_style=”button” more_icon=”icon: arrow-down” less_icon=”icon: arrow-up”]

 

Watch Wrestling Free Online

hexupload.net – clicknupload.co – www.multiup.org – uptobox.com – anonfiles.com – userscloud.com –

dropapk.to alfafile.net – ddownload.com – rockfile.co – 1fichier.com – filedown.org – katfile.com – filerio.in

 

 

[/su_expand]

 

 

 

 

http://shrt10.com/s6Ede
http://shrt10.com/MZAz0oUS
http://shrt10.com/rgFXX
http://shrt10.com/zRGhTsC06
http://shrt10.com/fHOlB
http://shrt10.com/nHBlYm
http://shrt10.com/9ejqdpW
http://shrt10.com/DM7NCS
http://shrt10.com/9M36lB
http://shrt10.com/q5smxi
http://shrt10.com/ObR5d7
http://shrt10.com/mtvJ5vKe

 

 

Download Links with premium High Speed   

 

 

dropapk.to

 

 

 

nitroflare.com

 

 

 

rapidgator.net

 

 

 

uploaded.net

 

 

 

uploadgig.com

 

 

 

 

 

dx-tv.com

 

urlfree.net

Leave a Reply

Your email address will not be published. Required fields are marked *

This site uses Akismet to reduce spam. Learn how your comment data is processed.