Watch Wrestling Free NOAH Kongo presents Diamond 3 2020

NOAH

Watch Wrestling Free NOAH Kongo presents Diamond 3 2020 12 26 DX-TV

Watch Wrestling Free NOAH

 Watch Wrestling Free NOAH

 

Download Links with premium High Speed   

 

 

nitroflare.com

http://shrt10.com/z5kKzOna

 

 

rapidgator.net

http://shrt10.com/dHwHgw

 

 

uploaded.net

http://shrt10.com/nicW9

 

 

uploadgig.com

http://shrt10.com/28drEBIiS

 

Watch online

 

Server 1

 

 

 

 

Watch Wrestling Free NOAH

 

 

 

 

Server-2

 

 

 

 

watch now

 

 

Uploaded By Site DX-TV.com

 

 

 

[su_expand more_text=”Show More Info” less_text=”Close all Info” height=”50″ text_color=”#000000″ link_color=”#e25f8b” link_style=”button” more_icon=”icon: arrow-down” less_icon=”icon: arrow-up”]

Complete name : NOAH.2020.12.26.Kongo.presents.Diamond.3.JAPANESE.WEB.h264-LATE.mkv
Format : Matroska
Format version : Version 4
File size : 1.82 GiB
Duration : 2 h 20 min
Overall bit rate : 1 862 kb/s

Watch Wrestling Free NOAH

Video
ID : 1
Format : AVC
Duration : 2 h 20 min
Bit rate : 1 764 kb/s
Width : 960 pixels
Height : 540 pixels
Display aspect ratio : 16:9
Frame rate mode : Constant
Frame rate : 30.000 FPS
Color space : YUV
Chroma subsampling : 4:2:0
Bit depth : 8 bits
Scan type : Progressive
Bits/(Pixel*Frame) : 0.113
Stream size : 1.73 GiB (95%)
Default : Yes
Forced : No
Color range : Limited
Color primaries : BT.601 PAL
Transfer characteristics : BT.601
Matrix coefficients : BT.470

Wrestling Free NOAH

Audio
ID : 2
Format : AAC LC
Format/Info : Advanced Audio
Codec ID : A_AAC-2
Duration : 2 h 20 min
Bit rate : 96.0 kb/s
Channel(s) : 2 channels
Channel layout : L R
Sampling rate : 44.1 kHz
Frame rate : 43.066 FPS (1024 SPF)
Compression mode : Lossy
Stream size : 96.2 MiB (5%)
Language : English
Default : Yes
Forced : No

Watch Wrestling Free 

Format : AAC LC
Format/Info : Advanced Audio
Codec ID : A_AAC-2
Duration : 2 h 20 min
Bit rate : 96.0 kb/s
Channel(s) : 2 channels
Channel layout : L R
Sampling rate : 44.1 kHz
Frame rate : 43.066 FPS (1024 SPF)
Compression mode : Lossy
Stream size : 96.2 MiB (5%)
Language : English
Default : Yes
Forced : No

 

[/su_expand]

 

https://dx-tv.com/

You May Also Like

Leave a Reply

Your email address will not be published. Required fields are marked *

This site uses Akismet to reduce spam. Learn how your comment data is processed.