Watch Wrestling Free ICW NHB Pitfighter X5 DX-TV

Watch Wrestling Free ICW NHB Pitfighter X5 DX-TV

Watch Wrestling Free ICW

 Watch Wrestling Free ICW

 

Download Links with premium High Speed   

 

 

dropapk.to

http://shrt10.com/pJvFgaQm

 

 

nitroflare.com

http://shrt10.com/SgWYJOR

 

 

rapidgator.net

http://shrt10.com/6btoY555

 

 

uploaded.net

http://shrt10.com/xhg3A7so

 

 

uploadgig.com

http://shrt10.com/ubxISbPS

 

 

Watch online

 

Server 1

 

 

 

 

Watch Wrestling Free ICW

 

 

 

 

Server-2

 

 

 

 

watch now

 

 

 

 

Uploaded By Site DX-TV.com

 

 

 

[su_expand more_text=”Show More Info” less_text=”Close all Info” height=”50″ text_color=”#000000″ link_color=”#e25f8b” link_style=”button” more_icon=”icon: arrow-down” less_icon=”icon: arrow-up”]

Complete name : ICW No Holds Barred – Pitfighter X5.mp4
Format : MPEG-4
Format profile : Base Media
File size : 1.93 GiB
Duration : 2 h 44 min
Overall bit rate : 1 678 kb/s
Writing application : Lavf58.45.100

Free ICW

Video
ID : 1
Format : AVC
Duration : 2 h 44 min
Source duration : 2 h 44 min
Bit rate : 1 536 kb/s
Width : 1 280 pixels
Height : 720 pixels
Display aspect ratio : 16:9
Frame rate mode : Variable
Frame rate : 29.970 FPS
Color space : YUV
Chroma subsampling : 4:2:0
Bit depth : 8 bits
Scan type : Progressive
Bits/(Pixel*Frame) : 0.056

Watch Wrestling Free ICW

Audio
ID : 2
Format : AAC LC
Format/Info : Advanced Audio
Codec ID : mp4a-40-2
Duration : 2 h 44 min
Bit rate mode : Constant
Bit rate : 130 kb/s
Channel(s) : 2 channels
Channel layout : L R
Sampling rate : 48.0 kHz
Frame rate : 46.875 FPS
Compression mode : Lossy
Stream size : 152 MiB (8%)
Default : Yes
Alternate group : 1

Format/Info : Advanced Audio
Codec ID : mp4a-40-2
Duration : 2 h 44 min
Bit rate mode : Constant
Bit rate : 130 kb/s
Channel(s) : 2 channels
Channel layout : L R
Sampling rate : 48.0 kHz
Frame rate : 46.875 FPS
Compression mode : Lossy
Stream size : 152 MiB (8%)
Default : Yes
Alternate group : 1

[/su_expand]

 

https://dx-tv.com/

You May Also Like

Leave a Reply

Your email address will not be published. Required fields are marked *

This site uses Akismet to reduce spam. Learn how your comment data is processed.