Watch Wrestling Free AEW Dynamite 720p 2020 10 28 Online

Wrestling Free AEW Dynamite 2020 10 28 720p HDTV NWCHD DX-TV

Watch Wrestling Free AEW Dynamite

 

 Watch Wrestling Free AEW Dynamite

 

Watch Wrestling Free AEW Dynamite 720p 2020 10 28 Online

 

Dasha Gonzalez interviewed Wardlow backstage before his match at the start of the show.

MJF interrupted Dasha. “Let’s get something straight. If Wardlow wins this tournament,

and then beats the champion, I become the AEW World champion.

Because Wardlow is under contract to me, which means his property is my property.

Isn’t that right Wardlow?” asked MJF.

“Yeah, you got it,” replied Wardlow, and then subtly rolled his eyes.

Sammy Guevara walked onto the scene and interrupted MJF.

“What a nice way to talk to people, Max. I’m not your buddy.

I’m not your friend. And tonight I’m gonna make sure you never join the Inner Circle,” said Sammy.

They had a stare down until MJF backed off, as Wardlow’s entrance music hit.

Watch Wrestling Free AEW Dynamite

The first match of the night was “Mr. Mayhem” Wardlow vs. “Hangman” Adam Page!

Wardlow is on a 9-match singles winning streak.

Excalibur, Tony Schiavone, and Jim Ross were the broadcast team for tonight’s event!

“Right now we have two men who have a chance to go to the championship of the Eliminator Tournament,”

Page blasted Wardlow with a shotgun dropkick for a quick start to the match!

“‘Hangman’ Page not wasting anytime trying to take the fight directly to Wardlow,” said Excalibur.

Wardlow bounced back quickly by connecting with a forearm on Page.

He hurled “Hangman” into the corner turnbuckles. Page used his speed to avoid a charging Wardlow,

jumping off the middle rope with a clothesline to Wardlow,

sending him to the outside! Page followed up with a pescado but Wardlow caught him,

Page slipped out of Wardlow’s grasp and pushed him headfirst into the steel post!

Watch Wrestling Free AEW Dynamite

 

Complete name : AEW.Dynamite.2020.10.28.720p.HDTV.x264-NWCHD.mp4
Format : MPEG-4
Format profile : Base Media
Codec ID : isom
File size : 3.45 GiB
Duration : 1 h 44 min
Overall bit rate : 4 710 kb/s
Writing application : Lavf58.51

  Wrestling Free AEW Dynamite

Video
ID : 1
Format : AVC
Duration : 1 h 44 min
Bit rate : 4 500 kb/s
Width : 1 280 pixels
Height : 720 pixels
Display aspect ratio : 16:9
Frame rate mode : Variable
Frame rate : 29.970 FPS
Color space : YUV
Chroma subsampling : 4:2:0
Bit depth : 8 bits
Scan type : Progressive
Bits/(Pixel*Frame) : 0.163
Stream size : 3.30 GiB (96%)
Color primaries : BT.709
Transfer characteristics : BT.709
Matrix coefficients : BT.709
Codec configuration box : avcC

 Wrestling Free AEW Dynamite

Audio
ID : 2
Format : AAC LC
Format/Info : Advanced Audio
Codec ID : mp4a-40-2
Duration : 1 h 44 min
Bit rate mode : Constant
Bit rate : 192 kb/s
Channel(s) : 2 channels
Channel layout : L R
Sampling rate : 48.0 kHz
Frame rate : 46.875 FPS
Compression mode : Lossy
Stream size : 144 MiB
Title : Stereo
Language : English
Default : Yes
Alternate group : 1

 

 

 

Watch Wrestling Free AEW Dynamite 720p 2020 10 28 Online

 

 

 

Watch online

 

 

 

Server 1

 

 

 

 

Watch Wrestling Free AEW Dynamite

 

 

 

 

Server-2

 

 

 

watch now

 

 

 

Uploaded By Site DX-TV.com

 

Download Links with premium High Speed   

 

 

 

 

dropapk.to

 

 

 

nitroflare.com

 

 

 

rapidgator.net

 

 

 

uploaded.net

 

 

 

uploadgig.com

 

 

 

 

 

dx-tv.com

 

urlfree.net

Leave a Reply

Your email address will not be published. Required fields are marked *

This site uses Akismet to reduce spam. Learn how your comment data is processed.