Watch Wrestling DDT Ultimate Party 2020 11 03

Wrestling DDT Ultimate Party 2020 11 03 DX-TV

DDT Ultimate Party 2020

 

 DDT Ultimate Party 2020

Watch Wrestling DDT Ultimate Party 2020 11 03

 

Complete name : DDT.2020.11.03.Ultimate.Party.2020.JAPANESE.WEB.h264-LATE.mkv
Format : Matroska
Format version : Version 4
File size : 3.99 GiB
Duration : 5 h 8 min
Overall bit rate : 1 855 kb/s

DDT Ultimate Party 2020

Video
ID : 1
Format : AVC
Duration : 5 h 8 min
Bit rate : 1 757 kb/s
Width : 960 pixels
Height : 540 pixels
Display ratio : 16:9
Frame rate mode : Constant
Frame rate : 30.000 FPS
Color space : YUV
Chroma sampling : 4:2:0
Bit depth : 8 bits
Scan type : Progressive
Bits/(Pixel*Frame) : 0.113
Stream size : 3.78 GiB (95%)
Default : Yes
Forced : No
Color range : Limited
Color primaries : BT.601 PAL
Transfer characteristics : BT.601
Matrix coefficients : BT.470 

DDT Ultimate Party 2020

Audio
ID : 2
Format : AAC LC
Format/Info : Advanced 
Codec ID : A_AAC-2
Duration : 5 h 8 min
Bit rate : 96.0 kb/s
Channel(s) : 2 channels
Channel layout : L R
Sampling rate : 44.1 kHz
Frame rate : 43.066 FPS
Compression mode : Lossy
Stream size : 212 MiB (5%)
Language : English
Default : Yes
Forced : No

DDT Ultimate Party 2020

A Block

Konosuke Takeshita (4th Appearance, 2nd Winner)
HARASHIMA (4th Appearance, 1st Runner-Up)
Daisuke Sasaki (4th Appearance)
Yukio Sakaguchi (3rd Appearance)
Akito (3rd Appearance)
MAO (2nd Appearance)
Chris Brookes (2nd Appearance)

B Block

Tetsuya Endo (4th Appearance, 3rd Runner-Up)
Kazusada Higuchi (3rd Appearance)
Soma Takao (4th Appearance)
Makoto Oishi (1st Appearance)
Yuki Ueno (2nd Appearance)
Shunma Katsumata (1st Appearance)
Jun Akiyama (1st Appearance

DDT Ultimate Party 2020

Watch Wrestling DDT Ultimate Party 2020 11 03

 

 

Watch online

 

 

Server 1

 

 

 

 

Server-2

DDT Ultimate Party 2020

 

 

 

 

 

 

 

Uploaded By Site DX-TV.com

 

 

 

 

Download Free Links with normal and high Speed [ more 14 hosts ]  

 

[su_expand more_text=”Show Hosts Info” less_text=”Close all Info” height=”30″ text_color=”#000000″ link_color=”#e25f8b” link_style=”button” more_icon=”icon: arrow-down” less_icon=”icon: arrow-up”]

 

DDT Ultimate Party 2020

 

 

[/su_expand]

 

 

http://shrt10.com/rZzV3uw
http://shrt10.com/sHUhbzU
http://shrt10.com/sziozMX
http://shrt10.com/SqBfCB
http://shrt10.com/42oOb
http://shrt10.com/Inqh4qsu

 

 

 

 

Download Links with premium High Speed   

 

 

 

 

dropapk.to

 

 

 

nitroflare.com

 

 

 

rapidgator.net

 

 

 

uploaded.net

 

 

 

uploadgig.com

 

 

 

DDT Ultimate Party 2020

 

dx-tv.com

 

urlfree.net

You May Also Like

Leave a Reply

Your email address will not be published. Required fields are marked *

This site uses Akismet to reduce spam. Learn how your comment data is processed.