Watch Wrestling DDT Road to Ultimate Party 2020 10 25

Wrestling DDT Road to Ultimate Party 2020 10 25 DX-TV

Watch Wrestling

 

 Watch Wrestling
 


 

 

Watch Wrestling DDT Road to Ultimate Party 2020 10 25

 

Nautilus in the meantime has held onto the KO-D Tag Team titles ever since early 2020.

The allies of Disaster Box have been defending champions for nearly 300 days.

But that hasn’t stopped them from finding success outside of the tag circuit as.

Yuki Ueno challenged for the KO-D Open weight title at Summer vacation,

and both members will have challenged for the UNIVERSAL title come Ultimate Party.

It makes sense that they are confident despite the unique challenge.

Especially considering Yuki Ueno could walk out a triple champion.

Watch Wrestling

This challenge will take form in two matches happening one right after the other.

The first is Eruption vs Nautilus and Hirata for the six-man tag titles.

Then it will be Nautilus’ defense of the KO-D Tag Titles against the team of Higuchi and Sakaguchi.

There’s a lot of outcomes that can come from the challenges. 

In 2020 two dominant teams formed, in the main event of Road To Ultimate Party we will see which one is stronger.

Watch Wrestling

Name of the event: DDT Road To Ultimate Party 2020
Date: 25.10.2020
Promotion: Dramatic Dream Team
Type: TV-Show
Location: Tokyo, Japan
Arena: Korakuen Hall
Broadcast type: Live
Broadcast date: 25.10.2020
TV station/network: Samurai! TV

Watch Wrestling

Video
ID : 1
Format : AVC
Duration : 3 h 0 min
Bit rate : 1 765 kb/s
Width : 960 pixels
Height : 540 pixels
Display aspect ratio : 16:9
Frame rate mode : Constant
Frame rate : 30.000 FPS
Color space : YUV
Chroma subsampling : 4:2:0
Bit depth : 8 bits
Scan type : Progressive
Bits/(Pixel*Frame) : 0.113
Stream size : 2.22 GiB (95%)
Default : Yes
Forced : No
Color range : Limited
Color primaries : BT.601 PAL
Transfer characteristics : BT.601
Matrix coefficients : BT.470 System

Watch Wrestling

Audio
ID : 2
Format : AAC LC
Format/Info : Advanced Audio
Codec ID : A_AAC-2
Duration : 3 h 0 min
Bit rate : 96.0 kb/s
Channel(s) : 2 channels
Channel layout : L R
Sampling rate : 44.1 kHz
Frame rate : 43.066 FPS (1024 SPF)
Compression mode : Lossy
Stream size : 124 MiB (5%)
Language : English
Default : Yes
Forced : No

 

 

 

Watch Wrestling DDT Road to Ultimate Party 2020 10 25

 

 

Watch online

 

 

Server 1

 

Watch Wrestling

 

 

Server-3

 

 

 

watch now

 

 

 

 

Uploaded By Site DX-TV.com

 

 

 

 

Download Free Links with normal and high Speed [ more 14 hosts ]  

 

 

 

http://shrt10.com/SuRpPhZ
http://shrt10.com/cXNg0AmMs
http://shrt10.com/z1wNbwnfX
http://shrt10.com/pTf9eY
http://shrt10.com/8x8Djay
http://shrt10.com/LPAQBt
http://shrt10.com/Og2Oo
http://shrt10.com/wH99GuNj

 

 

 

Download Links with premium High Speed   

 

 

 

dropapk.to

 

 

 

nitroflare.com

 

 

 

rapidgator.net

 

 

 

uploaded.net

 

 

 

uploadgig.com

 

 

 

 

 

dx-tv.com

 

urlfree.net

Leave a Reply

Your email address will not be published. Required fields are marked *

This site uses Akismet to reduce spam. Learn how your comment data is processed.