Watch Wrestling AEW Dynamite 2020 12 16 1080p DX-TV

Watch Wrestling AEW Dynamite 2020 12 16 720p /1080p DX-TV

Watch Wrestling AEW Dynamite

 Watch Wrestling AEW Dynamite

 

Download Links with premium High Speed   

 

 

dropapk.to

http://shrt10.com/HLx8UEDeR
http://shrt10.com/IfaLlko

 

 

nitroflare.com

http://shrt10.com/82qGF
http://shrt10.com/CoSaP4

 

 

rapidgator.net

http://shrt10.com/HVNkm
http://shrt10.com/I1u0SQt

 

 

uploaded.net

http://shrt10.com/ZElET
http://shrt10.com/C7GZ5

 

 

uploadgig.com

http://shrt10.com/GcSe5gen
http://shrt10.com/AzuConHc

 

 

Watch Wrestling AEW Dynamite

Watch online

 

Server 1

 

 

 

 

Watch Wrestling AEW Dynamite

 

 

 

 

Server-2

 

 

 

 

watch now

 

 

Uploaded By Site DX-TV.com

 

 

[su_expand more_text=”Show More Info” less_text=”Close all Info” height=”50″ text_color=”#000000″ link_color=”#e25f8b” link_style=”button” more_icon=”icon: arrow-down” less_icon=”icon: arrow-up”]
Complete name : AEW.Dynamite.2020.12.16.720p.WEB.h264-HEEL.mp4
Format : MPEG-4
Format profile : Base Media
Codec ID : isom
File size : 1.64 GiB
Duration : 2 h 0 min
Overall bit rate : 1 948 kb/s
Writing application : Lavf58.32.104

Video
ID : 1
Format : AVC
Duration : 2 h 0 min
Bit rate : 1 842 kb/s
Width : 1 280 pixels
Height : 720 pixels
aspect ratio : 16:9
rate mode : Variable
Frame rate : 29.970 FPS
Color space : YUV
Chroma subsampling : 4:2:0
Bit depth : 8 bits
Scan type : Progressive
Bits/(Pixel*Frame) : 0.067
Stream size : 1.55 GiB
Codec configuration box : av

Watch Wrestling AEW Dynamite

Audio
ID : 2
Format : AAC LC
Format/Info : Advanced Audio
Codec ID : mp4a-40-2
Duration : 2 h 0 min
Bit rate mode : Constant
Bit rate : 96.0 kb/s
Channel(s) : 2 channels
Channel layout : L R
Sampling rate : 48.0 kHz
Frame rate : 46.875 FPS
Compression mode : Lossy
Stream size : 83.0 MiB
Default : Yes
Alternate group : 1

Complete name : AEW.Dynamite.2020.12.16.1080p.WEB.h264-HEEL.mp4
Format : MPEG-4
Format profile : Base Media
Codec ID : isom
File size : 3.52 GiB
Duration : 2 h 0 min
Overall bit rate : 4 163 kb/s
Writing application : Lavf58.63.100

Watch Wrestling AEW Dynamite

Video
ID : 1
Format : AVC
Duration : 2 h 0 min
Source duration : 2 h 0 min
Bit rate : 3 902 kb/s
Width : 1 920 pixels
Height : 1 080 pixels
Display aspect ratio : 16:9
Frame rate mode : Variable
Frame rate : 29.970 FPS
Color space : YUV
Chroma subsampling : 4:2:0
Bit depth : 8 bits
Scan type : Progressive
Bits/(Pixel*Frame) : 0.063
Stream size : 3.29 GiB
mdhd_Duration : 7245239
Codec configuration box : av

AEW Dynamite

Audio #1
ID : 2
Format : AAC LC
Codec ID : mp4a-40-2
Duration : 2 h 0 min
Bit rate mode : Constant
Bit rate : 128 kb/s
Channel(s) : 2 channels
Channel layout : L R
Sampling rate : 48.0 kHz
Frame rate : 46.875 FPS
Compression mode : Lossy
Stream size : 111 MiB (3%)
Language : English
Default : Yes
Alternate group : 1

Audio #2
ID : 3
Format : AAC LC
Format/Info : Advanced Audio
Codec ID : mp4a-40-2
Duration : 2 h 0 min
Bit rate mode : Constant
Bit rate : 128 kb/s
Channel(s) : 2 channels
Channel layout : L R
Sampling rate : 48.0 kHz
Frame rate : 46.875 FPS
Compression mode : Lossy
Stream size : 111 MiB (3%)
Language : Spanish
Default : No
Alternate group : 1

 

[/su_expand]

 

https://dx-tv.com/

Leave a Reply

Your email address will not be published. Required fields are marked *

This site uses Akismet to reduce spam. Learn how your comment data is processed.