Watch Wrestling AEW Dynamite 2020 10 21 Online

AEW Dynamite 2020 10 21 HDTV NWCHD DX-TV

Watch Wrestling AEW Dynamite

 

 Watch Wrestling AEW Dynamite

 

Watch Wrestling AEW Dynamite 2020 10 21 Online

 

Rey Fenix and Penta El Zero M are not unfamiliar with one another as opponents inside the wrestling ring,

it’s a position the two men have been placed in several times in their careers,

but this marks the first time in All Elite Wrestling, and the first since April of 2019.

And although there have been championships on the line in some of their previous encounters,

this is by far the most important and highest profile match between the brothers.

And the world of singles wrestling is not unfamiliar to either man,

but it is certainly a rarity in terms of Penta who, prior to this Tuesday night’s episode of DARK.

had not competed in an AEW singles match since a December 2019 victory over Christopher Daniels.

Watch Wrestling AEW Dynamite

Fenix has had far more experience inside the AEW ring as a singles competitor, having gone six-and-one in that role since AEW’s inception,

and rattling off four of those victories in a row, perhaps even a fifth since he too is in action on DARK Tuesday night.

Which of the Lucha Brothers will advance in this tournament, and take one step closer ward challenging for the AEW World Title?

Whichever it may be, they’ve got either Kenny Omega or Joey Janela in their future, and to be frank,

Rey Fenix has a little something to settle with both of them…

 

Watch Wrestling AEW Dynamite

Complete name : AEW.Dynamite.2020.10.21.HDTV.x264-NWCHD.mp4
Format : MPEG-4
Format profile : Base Media
Codec ID : isom
File size : 1.16 GiB
Duration : 1 h 44 min
Overall bit rate : 1 595 kb/s
Writing application : Lavf58.27.103

Watch Wrestling AEW Dynamite

Video
ID : 1
Format : AVC
Duration : 1 h 44 min
Bit rate : 1 400 kb/s
Width : 704 pixels
Height : 400 pixels
aspect ratio : 16:9
Original aspect rat : 16:9
Frame rate mode : Variable
Frame rate : 29.970 FPS
Color space : YUV
Chroma subsampling : 4:2:0
Bit depth : 8 bits
Scan type : Progressive
Bits/(Pixel*Frame) : 0.166
Stream size : 1.01 GiB (87%)
Color primaries : BT.709
Transfer characteristics : BT.709
Matrix coefficients : BT.709
Codec configuration box : avcC

Watch Wrestling AEW Dynamite

Audio
ID : 2
Format : AAC LC
Format/Info : Advanced Audio
Codec ID : mp4a-40-2
Duration : 1 h 44 min
Bit rate mode : Constant
Bit rate : 192 kb/s
Channel(s) : 2 channels
Channel layout : L R
Sampling rate : 48.0 kHz
Frame rate : 46.875 FPS
Compression mode : Lossy
Stream size : 143 MiB (12%)
Title : Stereo
Language : English
Default : Yes
Alternate group : 1

 

 

 

Watch Wrestling AEW Dynamite 2020 10 21 Online

 

 

Watch online

 

 

 

Server 1

 

 

watch now

 

 

 

 

Server-2

 

 

 

watch now

 

 

 

 

Server-3

 

 

 

Watch Wrestling AEW Dynamite

 

 

 

 

Uploaded By Site DX-TV.com

 

 

 

 

Download Free Links with normal and high Speed [ more 14 hosts ]  

 

 

 

http://shrt10.com/et0AnTZ
http://shrt10.com/d0Ere2
http://shrt10.com/e7e6ZX
http://shrt10.com/7MiR5eWe
http://shrt10.com/u7M3W
http://shrt10.com/W6xBJ
http://shrt10.com/RNByaYhu5
http://shrt10.com/DhNI2yKD
http://shrt10.com/PU622hz
http://shrt10.com/76OWlN
http://shrt10.com/E92Gl40J
http://shrt10.com/S0aU8

 

 

 

 

Download Links with premium High Speed   

 

 

 

 

dropapk.to

 

 

 

nitroflare.com

 

 

 

rapidgator.net

 

 

 

uploaded.net

 

 

 

uploadgig.com

 

 

 

 

 

dx-tv.com

 

urlfree.net

Leave a Reply

Your email address will not be published. Required fields are marked *

This site uses Akismet to reduce spam. Learn how your comment data is processed.