Watch Wrestling AEW Dynamite 2020 10 07 720p

Wrestling AEW Dynamite 2020 10 07 720p DX-TV

 

Watch Wrestling AEW

 

Watch Wrestling AEW
 

 

 

Watch Wrestling AEW Dynamite 2020 10 07 720p

 

 

Complete name : AEW.Dynamite.2020.10.07.720p.WEB.h264-HEEL.mp4
Format : MPEG-4
Format profile : Base Media
Codec ID : isom
File size : 1.63 GiB
Duration : 2 h 2 min
Overall bit rate : 1 909 kb/s
application : Lavf58.32.104

Watch Wrestling AEW

Video
ID : 1
Format : AVC
Duration : 2 h 2 min
Bit rate : 1 804 kb/s
Width : 1 280 pixels
Height : 720 pixels
Display aspect ratio : 16:9
Frame rate mode : Variable
Frame rate : 29.970 FPS
Color space : YUV
Chroma subsampling : 4:2:0
Bit depth : 8 bits
Scan type : Progressive
Bits/(Pixel*Frame) : 0.065
Stream size : 1.54 GiB (94%)
Codec configuration box : avcC

Watch Wrestling AEW

Audio
ID : 2
Format : AAC LC
Format/Info : Advanced Audio
Codec ID : mp4a-40-2
Duration : 2 h 2 min
Bit rate mode : Constant
Bit rate : 96.0 kb/s
Channel(s) : 2 channels
Channel layout : L R
Sampling rate : 48.0 kHz
Frame rate : 46.875 FPS (1024 SPF)
Compression mode : Lossy
Stream size : 83.0 MiB (5%)
Default : Yes
Alternate group : 1

Watch Wrestling AEW

AEW World Tag Team Champions FTR—Cash Wheeler &

Dax Harwood (with Tully Blanchard) vs. TH2—Angelico & Jack Evans!

TH2 are on a three-match win streak. The Young Bucks were seen watching monitors backstage.

Jack Evans rolled up Dax twice as the match started for two consecutive near falls. Angelico tagged in and connected with a high crossbody! Harwood and Wheeler collected their thoughts outside the ring with manager Tully Blanchard. Angelico went for a crossbody but FTR caught him, so Jack Evans flew off the top rope and landed on FTR (and his own partner)! Evans put Dax back in the ring and went right for the pin but Dax kicked out. While Tully distracted ref Aubrey Edwards, Cash knocked Evans off the top rope. They dropped Evans’ knee on the steel barricade, and then rammed it into the ring post!

Watch Wrestling AEW

FTR continued to punish the knee of Jack Evans, with Dax using a dragon screw leg whip. Finally Angelico got the hot tag and used to educated feet to take down Dax and Cash! He applied a double submission on FTR but Tully helped FTR by pushing the bottom rope closer so they could reach it. The ref then had to break the submission. After an assisted 450 splash from TH2, Cash kicked out at two!

 

Watch Wrestling AEW Dynamite 2020 10 07 720p

 

 

 

 

Watch online

 

 

 

 

 

Server 1

 

 

 

 

Watch Wrestling AEW

 

 

 

 

Server-2

 

 

 

Watch Wrestling AEW

 

 

 

 

Server-3

 

 

 

Watch Wrestling AEW

 

 

 

 

Uploaded By Site DX-TV.com

 

 

 

 

Download Free Links with normal and high Speed [ more 14 hosts ]  

 

 

 

http://shrt10.com/XTCE8qpZq
http://shrt10.com/faECE
http://shrt10.com/KTdnVN
http://shrt10.com/BCrIrIg1
http://shrt10.com/o0NpAVn
http://shrt10.com/z1LaY
http://shrt10.com/6pJhk2xO
http://shrt10.com/XNH919zGm
http://shrt10.com/3bUOis
http://shrt10.com/gbRDVyhtd
http://shrt10.com/12pfat
http://shrt10.com/jhvjKwXsC

 

 

 

 

Download Links with premium High Speed   

 

 

 

nitroflare.com

 

 

 

rapidgator.net

 

 

 

uploaded.net

 

 

 

uploadgig.com

 

 

 

 

 

dx-tv.com

 

urlfree.net

Leave a Reply

Your email address will not be published. Required fields are marked *

This site uses Akismet to reduce spam. Learn how your comment data is processed.