Watch Wrestling 720p WWE SmackDown 2020 10 23 Free

Wrestling WWE SmackDown 2020 10 23 720p HDTV NWCHD DX-TV

 

Watch Wrestling WWE

 

 Watch Wrestling WWE
 


 

 

Watch Wrestling 720p WWE SmackDown 2020 10 23 Free

 

The KO Show” with special guest Daniel Bryan turned to chaos

Kevin Owens welcomed Daniel Bryan onto the first “KO Show” after the WWE Draft.

Although Bryan talked more about the exciting future of SmackDown .

and the need for the Intercontinental Championship to be defended every week,

the more intriguing idea came when Owens proposed that they attempt to join forces as a tag team.

Before that could be resolved, Dolph Ziggler & Robert Roode interrupted to declare themselves .

the blue brand’s greatest acquisition of the WWE Draft and the best tag team on the planet.

At the mention of “the best,” however, SmackDown Tag Team Champions The Street Profits joined the party.

Feeling disrespected, it wasn’t long before Shinsuke Nakamura & Cesaro .

also emerged to assert themselves as the team to beat on the blue brand.

The volatile situation quickly descended into chaos until WWE Official ,

Adam Pearce was left little choice but to create an impromptu Eight-Man Tag Team Match.

Watch Wrestling WWE

 

Complete name : WWE.Friday.Night.SmackDown.2020.10.23.720p.HDTV.x264-NWCHD.mp4
Format : MPEG-4
Format profile : Base Media
Codec ID : isom
File size : 2.86 GiB
Duration : 1 h 26 min
Overall bit rate : 4 724 kb/s
Writing application : Lavf58.51.101

Watch Wrestling WWE

Video
ID : 1
Format : AVC
Duration : 1 h 26 min
Bit rate : 4 500 kb/s
Width : 1 280 pixels
Height : 720 pixels
Display aspect ratio : 16:9
Frame rate mode : Variable
Frame rate : 29.970 FPS
Color space : YUV
Chroma subsampling : 4:2:0
Bit depth : 8 bits
Scan type : Progressive
Bits/(Pixel*Frame) : 0.163
Stream size : 2.73 GiB (96%)
Color primaries : BT.709
Transfer characteristics : BT.709
Matrix coefficients : BT.709
Codec configuration box : avcC

Watch Wrestling WWE

Audio
ID : 2
Format : AAC LC
Format/Info : Advanced Audio
Codec ID : mp4a-40-2
Duration : 1 h 26 min
Bit rate mode : Constant
Bit rate : 192 kb/s
Channel(s) : 2 channels
Channel layout : L R
Sampling rate : 48.0 kHz
Frame rate : 46.875 FPS
Compression mode : Lossy
Stream size : 119 MiB
Title : Stereo
Language : English
Default : Yes
Alternate group : 1

 

 

 

Watch Wrestling 720p WWE SmackDown 2020 10 23 Free

 

 

Watch online

 

 

Server 1

 

 

 

 

watch now

 

 

Server-3

 

 

 

Watch Wrestling WWE

 

 

 

 

Uploaded By Site DX-TV.com

 

 

 

 

Download Free Links with normal and high Speed [ more 14 hosts ]  

 

[su_expand more_text=”Show Hosts Info” less_text=”Close all Info” height=”30″ text_color=”#000000″ link_color=”#e25f8b” link_style=”button” more_icon=”icon: arrow-down” less_icon=”icon: arrow-up”]

 

Watch Wrestling WWE

hexupload.net – clicknupload.co – www.multiup.org – uptobox.com – anonfiles.com – userscloud.com –

dropapk.to alfafile.net – ddownload.com – rockfile.co – 1fichier.com – filedown.org – katfile.com – filerio.in

 

 

[/su_expand]

 

 

 

http://shrt10.com/vXRF6hE
http://shrt10.com/XfJ7jaAb
http://shrt10.com/eplUn
http://shrt10.com/Ky5XG
http://shrt10.com/7JtgDzM
http://shrt10.com/MgPYe
http://shrt10.com/MQbfj
http://shrt10.com/0NfWhP8nk
http://shrt10.com/BzNJlCZ

 

 

 

Download Links with premium High Speed   

 

 

dropapk.to

 

 

 

nitroflare.com

 

 

 

rapidgator.net

 

 

 

uploaded.net

 

 

 

uploadgig.com

 

 

 

 

 

dx-tv.com

 

urlfree.net

Leave a Reply

Your email address will not be published. Required fields are marked *

This site uses Akismet to reduce spam. Learn how your comment data is processed.