Watch World of Sport Wrestling UK 2018 S01E05 WEB DL KANiE

Watch World of Sport Wrestling UK 2018 S01E05 WEB DL KANiE

 

 

 

 


 

 

 

 

dx-tv.com

 

 

 

 

 

 

 

 
Complete name : World.of.Sport.Wrestling.UK.2018.S01E05.WEB-DL.h264-KANiE.mp4
Format : MPEG-4
Format profile : Base Media
File size : 540 MiB
Duration : 46 min 41 s
Overall bit rate : 1 618 kb/s
Writing application : Lavf58.12.100

Video
ID : 1
Format : AVC
Format/Info : Advanced Video Codec
Codec ID/Info : Advanced Video Coding
Duration : 46 min 41 s
Bit rate : 1 513 kb/s
Nominal bit rate : 1 704 kb/s
Width : 896 pixels
Height : 504 pixels
Display aspect ratio : 16:9
Frame rate mode : Variable
Frame rate : 25.000 FPS
Minimum frame rate : 12.500 FPS
Maximum frame rate : 90 000.000 FPS
Color space : YUV
Chroma subsampling : 4:2:0
Bit depth : 8 bits
Scan type : Progressive
Bits/(Pixel*Frame) : 0.134
Stream size : 505 MiB (94%)
Writing library : x264 core 138

Audio
ID : 2
Format : AAC
Format/Info : Advanced Audio Codec
Format profile : LC
Codec ID : mp4a-40-2
Duration : 46 min 41 s
Bit rate mode : Constant
Bit rate : 96.0 kb/s
Channel(s) : 2 channels
Channel positions : Front: L R
Sampling rate : 48.0 kHz
Frame rate : 46.875 FPS (1024 SPF)
Compression mode : Lossy
Stream size : 32.1 MiB (6%)
Default : Yes
Alternate group : 1

 

 

 

 

 

Watch World of Sport Wrestling UK 2018 S01E05 WEB DL KANiE

 

 

 

 

Watch online

 

 

Waiting finish converting video

 

 

Server 1

 

 

 

 

 

 

 

 

 

 

 

 

 

 

 

 

 

 

 

 

 

Server 2

 

 

 

 

 

 

 


 

 

 

 

 

 

 

Uploaded By Site DX-TV.com

 

 

 

open rar file to see this password

 

 

 

 

The password : DX-TV.com

 

 

 

 

Uploaded.net + rapidgator.net

 

 

 

 

 

http://shrt10.com/gfkpF946

 

 

 

 

 

 

 

http://shrt10.com/8z4OkM

 

 

 

 

 

 

Watch World of Sport Wrestling UK 2018 S01E05 WEB DL KANiE