Watch UWN Primetime Live 2020 11 24 /720p /1080p DX-TV

Watch Watch UWN Primetime Live 2020 11 24 /720p /1080p DX-TV

Watch UWN Primetime Live

 

 Watch UWN Primetime Live

 

[su_expand more_text=”Show More Info” less_text=”Close all Info” height=”30″ text_color=”#000000″ link_color=”#e25f8b” link_style=”button” more_icon=”icon: arrow-down” less_icon=”icon: arrow-up”]

 

Complete name : United.Wrestling.Network.Primetime.2020.11.24.SLING.PPV.x264-Star.mp4
Format : MPEG-4
Format profile : Base Media
Codec ID : mp42
File size : 922 MiB
Duration : 1 h 27 min
Overall bit rate : 1 465 kb/s

Watch UWN Primetime Live

Video
ID : 1
Format : AVC
Duration : 1 h 27 min
Bit rate : 1 300 kb/s
Width : 720 pixels
Height : 480 pixels
Display aspect ratio : 16:9
Original aspect rat : 16:9
Frame rate mode : Constant
Frame rate : 29.970 FPS
Standard : NTSC
Color space : YUV
Chroma subsampling : 4:2:0
Bit depth : 8 bits
Scan type : Progressive
Bits/(Pixel*Frame) : 0.126
Stream size : 815 MiB (88%)
Color primaries : BT.601 NTSC
Transfer characteristics : BT.709
Matrix coefficients : BT.601
Codec configuration box : av

Watch UWN Primetime Live

Audio
ID : 2
Format : AAC LC
Format/Info : Advanced Audio
Codec ID : mp4a-40-2
Duration : 1 h 27 min
Bit rate mode : Constant
Bit rate : 161 kb/s
Channel(s) : 2 channels
Channel layout : L R
Sampling rate : 48.0 kHz
Frame rate : 46.875 FPS
Compression mode : Lossy
Stream size : 101 MiB (11%)
Title : Stereo
Default : Yes

Watch UWN Primetime Live

Complete name : United.Wrestling.Network.Primetime.2020.11.24.720p.SLING.PPV.x264-Star.mkv
Format : Matroska
Format version : Version 4
File size : 3.18 GiB
Duration : 1 h 27 min
Overall bit rate : 5 182 kb/s

Video
ID : 1
Duration : 1 h 27 min
Bit rate : 5 000 kb/s
Width : 1 280 pixels
Height : 720 pixels
aspect ratio : 16:9
Frame rate mode : Constant
Frame rate : 29.970 FPS
Color space : YUV
Chroma subsampling : 4:2:0
Bit depth : 8 bits
Scan type : Progressive
Bits/(Pixel*Frame) : 0.181
Stream size : 3.00 GiB
Color range : Limited
Color primaries : BT.709
Transfer characteristics : BT.709
Matrix coefficients : BT.709

 UWN Primetime Live

Audio
ID : 2
Format : AC-3
Format/Info : Audio Coding 3
Commercial name : Dolby Digital
Codec ID : A_AC3
Duration : 1 h 27 min
Bit rate mode : Constant
Bit rate : 192 kb/s
Channel(s) : 2 channels
Channel layout : L R
Sampling rate : 48.0 kHz
Frame rate : 31.250 FPS
Compression mode : Lossy
Delay relative to video : -5 ms
Stream size : 121 MiB
Title : Stereo
Service kind : Complete Main
Default : Yes
Forced : No

Watch UWN Primetime Live

Complete name : United.Wrestling.Network.Primetime.2020.11.24.1080p.SLING.PPV.x264-Star.mkv
Format : Matroska
Format version : Version 4
File size : 6.29 GiB
Duration : 1 h 27 min
Overall bit rate : 10.2 Mb/s

Video
ID : 1
Format : AVC
Duration : 1 h 27 min
Bit rate : 10 000 kb/s
Width : 1 920 pixels
Height : 1 080 pixels
Display aspect ratio : 16:9
Frame rate mode : Constant
Frame rate : 29.970 FPS
Color space : YUV
Chroma subsampling : 4:2:0
Bit depth : 8 bits
Scan type : Progressive
Bits/(Pixel*Frame) : 0.161
Stream size : 6.00 GiB
Color range : Limited
Color primaries : BT.709
Transfer characteristics : BT.709
Matrix coefficients : BT.709

Watch UWN Primetime Live

Audio
ID : 2
Format : AC-3
Format/Info : Audio Coding 3
Commercial name : Dolby Digital
Codec ID : A_AC3
Duration : 1 h 27 min
Bit rate mode : Constant
Bit rate : 256 kb/s
Channel(s) : 2 channels
Channel layout : L R
Sampling rate : 48.0 kHz
Frame rate : 31.250 FPS
Compression mode : Lossy
Delay relative to video : -5 ms
Stream size : 161 MiB
Title : Stereo
Service kind : Complete Main
Default : Yes
Forced : No

 UWN Primetime Live

 

[/su_expand]

 

 

Watch online

 

 

Server 1

 

 

 

 

 

 

 

Server-2

 

 

 

 

 

https://dx-tv.com/wwe-survivor-series-2020-ppv-free-full-show-online-720p/

 

 

Uploaded By Site DX-TV.com

 

Watch UWN Primetime Live

 

 

Download Free Links with normal and high Speed [ more 14 hosts ]  

 

[su_expand more_text=”Show Hosts Info” less_text=”Close all Info” height=”30″ text_color=”#000000″ link_color=”#e25f8b” link_style=”button” more_icon=”icon: arrow-down” less_icon=”icon: arrow-up”]

 

 

hexupload.net – clicknupload.co – www.multiup.org

– uptobox.com – anonfiles.com – userscloud.com – 

 

 

[/su_expand]

 

400p

http://shrt10.com/iALOHWJ6H
http://shrt10.com/Gvigaf3N
http://shrt10.com/nP5060Xf9
http://shrt10.com/ttms5
http://shrt10.com/8IYbt37E
http://shrt10.com/OGuxBR

 

 

 

 

720p

 

http://shrt10.com/WUX4TvTqa
http://shrt10.com/G16DCgQJ
http://shrt10.com/MsgVw
http://shrt10.com/SelRRp
http://shrt10.com/rk18XLW
http://shrt10.com/vyyCi9B
http://shrt10.com/UJJOPm8xS
http://shrt10.com/87tRG

 

 

 

Watch UWN Primetime Live

 

Download Links with premium High Speed   

 

 

 

 

dropapk.to

http://shrt10.com/IcRPMf
http://shrt10.com/evc3ipA

http://shrt10.com/QAyV3yV80

 

nitroflare.com

http://shrt10.com/XoJlc1V
http://shrt10.com/aow3sLv

http://shrt10.com/6jNp0XZr

 

rapidgator.net

http://shrt10.com/buPfs
http://shrt10.com/SQaeh

http://shrt10.com/ELy75QqWT

 

uploaded.net

http://shrt10.com/52SRvS
http://shrt10.com/ogymcre66

 

 

uploadgig.com

http://shrt10.com/yfrQv3eM
http://shrt10.com/H8dhf

 

Watch UWN  Live