Watch UWN Primetime 2020 11 10 720p HDTV Star

UWN Primetime 2020 11 10 720p HDTV Star DX-TV

Watch UWN Primetime 2020

 

 Watch UWN Primetime 2020

 

Watch UWN Primetime 2020 11 10 720p HDTV Star

 

the UWN World Championship Tournament started tonight with Chris Dickinson defeating Peter Avalon.

Below are the results:

Watch UWN Primetime 2020

* Ray Rosas (c) defeated Kevin Martenson (Hollywood Heritage Championship Match)

The Bodega defeated Real Money Brothers

* Serena Deeb defeated Thunder Rosa (c) (NWA Women’s Championship Match)

* Chris Dickinson defeated Peter Avalon (UWN World Championship Tournament Match)

Watch UWN Primetime 2020

Complete name : United.Wrestling.Network.Primetime.2020.11.10.720p.HDTV.x264-Star.mkv
Format : Matroska
Format version : Version 4
File size : 3.22 GiB
Duration : 1 h 28 min
Overall bit rate : 5 177 kb/s
Writing library : Lavf58.29.100

Watch UWN Primetime 2020

Video
ID : 1
Format : AVC
Duration : 1 h 28 min
Bit rate : 5 000 kb/s
Width : 1 280 pixels
Height : 720 pixels
Display aspect ratio : 16:9
Frame rate mode : Constant
Frame rate : 29.970 FPS
Color space : YUV
Chroma subsampling : 4:2:0
Bit depth : 8 bits
Scan type : Progressive
Bits/(Pixel*Frame) : 0.181
Stream size : 3.03 GiB (94%)
Forced : No
Color range : Limited
Color primaries : BT.709
Transfer characteristics : BT.709
Matrix coefficients : BT.709

 UWN Primetime 2020

Audio
ID : 2
Format : AC-3
Format/Info : Audio
Commercial name : Dolby
Codec ID : A_AC3
Duration : 1 h 28 min
Bit rate mode : Constant
Bit rate : 192 kb/s
Channel(s) : 2 channels
Channel layout : L R
Sampling rate : 48.0 kHz
Frame rate : 31.250 FPS
Compression mode : Lossy
Delay relative to video : -5 ms
Stream size : 122 MiB
Title : Stereo
Service kind : Complete Main
Default : Yes
Forced : No

 

 

 

 UWN Primetime 2020 11 10 720p HDTV Star

 

Watch online

 

 

Server 1

 

 

 

 

Watch UWN Primetime 2020

 

 

 

 

Server-2

 

 

 

watch now

 

 

 

 

 

 

Uploaded By Site DX-TV.com

 

 

 

 

Download Free Links with normal and high Speed [ more 14 hosts ]  

 

[su_expand more_text=”Show Hosts Info” less_text=”Close all Info” height=”30″ text_color=”#000000″ link_color=”#e25f8b” link_style=”button” more_icon=”icon: arrow-down” less_icon=”icon: arrow-up”]

 

 UWN Primetime 2020 

 

 

[/su_expand]

 

 

http://shrt10.com/R1UO9R
http://shrt10.com/1bApKToVv
http://shrt10.com/j4OC1ClV
http://shrt10.com/phUN17Q40
http://shrt10.com/iyeQCE
http://shrt10.com/iDYqkF
http://shrt10.com/DzOSS3
http://shrt10.com/uTu31d6

 

 

 

 

Download Links with premium High Speed   

 

 

 

 

dropapk.to

http://shrt10.com/pXiXx6d
http://shrt10.com/RO6LepRl

 

 

nitroflare.com

http://shrt10.com/Frqize
http://shrt10.com/0z4GIbM4C

 

 

rapidgator.net

http://shrt10.com/fgEep8
http://shrt10.com/LcWsDE

 

 

uploaded.net

http://shrt10.com/7qGO7eCSp
http://shrt10.com/5T5EbTZ

 

 

uploadgig.com

http://shrt10.com/PNpYIr44
http://shrt10.com/LyQIn

 

 

 

 

dx-tv.com

 

urlfree.net

You May Also Like

Leave a Reply

Your email address will not be published. Required fields are marked *

This site uses Akismet to reduce spam. Learn how your comment data is processed.