Watch UFC Tuesday Night Contender Series S05W07 Replay

Watch UFC Tuesday Night Contender Series S05W07 Online Free Replay DX-TV

Watch UFC

 Watch UFC

 

 

 

Download Links with premium High Speed

Dopapk

 

 

Show Links

 

 

http://shrt10.com/4NDcak
http://shrt10.com/QkwV6UlC

 

[collapse]

 

 

 

 

Nitroflare

 

 

Show Links

 

 

http://shrt10.com/yJYE2
http://shrt10.com/hMRtut

 

 

[collapse]

 

 

Rapidgator

 

 

Show Links

 

 

http://shrt10.com/YB8Q59
http://shrt10.com/hYzFXlLy2

 

 

[collapse]

 

 

 

Uploaded

Show Links

 

 

 

 

http://shrt10.com/f0Rvi
http://shrt10.com/NgIHKue19

 

 

[collapse]

 

 

 

 

 

Watch online

 

Server 1

 

 

 

 

Watch UFC

 

 

 

 

Server-2

 

 

 

 

 now

 

 

 

|Server-3

 

 

 

 

watch now

 

 

Uploaded By Site DX-TV.com

 

 

Show Info This Show

 

 

Complete name : UFC.Tuesday.Night.Contender.Series.S05W07.720p.WEB-By DX-TV.com.mp4
Format : MPEG-4
Format profile : Base Media
Codec ID : isommp41)
File size : 3.40 GiB
Duration : 2 h 32 min
Overall bit rate mode : Variable
Overall bit rate : 3 192 kb/s

Watch UFC

Video
ID : 1
Format : AVC
Duration : 2 h 32 min
Bit rate mode : Variable
Bit rate : 3 052 kb/s
Maximum bit rate : 3 159 kb/s
Width : 1 280 pixels
Height : 720 pixels
Display aspect ratio : 16:9
Frame rate mode : Variable
Frame rate : 30.000 FPS
Minimum frame rate : 15.000 FPS
Maximum frame rate : 90 000.000 FPS
Standard : NTSC
Color space : YUV
Chroma subsampling : 4:2:0
Bit depth : 8 bits
Scan type : Progressive
Bits/(Pixel*Frame) : 0.110
Stream size : 3.25 GiB (96%)
Color primaries : BT.709
Transfer characteristics : BT.709
Matrix coefficients : BT.709
Codec configuration box : avcC

Watch UFC

Audio
ID : 2
Format : AAC LC
Codec ID : mp4a-40-2
Duration : 2 h 32 min
Bit rate mode : Variable
Bit rate : 132 kb/s
Maximum bit rate : 135 kb/s
Channel(s) : 2 channels
Channel layout : L R
Sampling rate : 48.0 kHz
Frame rate : 46.875 FPS
Compression mode : Lossy
Stream size : 144 MiB (4%)
Default : Yes
Alternate group : 1

Complete name : UFC.Tuesday.Night.Contender.Series.S05W07.WEB-By DX-TV.com.mp4
Format : MPEG-4
Format profile : Base Media
Codec ID : isovc1/mp41)
File size : 1.26 GiB
Duration : 2 h 32 min
Overall bit rate mode : Variable
Overall bit rate : 1 185 kb/s

Watch UFC

Video
ID : 1
Format : AVC
Codec ID/Info : Advanced Video
Duration : 2 h 32 min
Bit rate mode : Variable
Bit rate : 1 044 kb/s
Maximum bit rate : 1 069 kb/s
Width : 896 pixels
Height : 504 pixels
Display aspect ratio : 16:9
Frame rate mode : Variable
Frame rate : 30.000 FPS
Minimum frame rate : 15.000 FPS
Maximum frame rate : 90 000.000 FPS
Standard : NTSC
Color space : YUV
Chroma subsampling : 4:2:0
Bit depth : 8 bits
Scan type : Progressive
Bits/(Pixel*Frame) : 0.077
Stream size : 1.11 GiB (88%)
Writing library : x264 core 159 r29
Color primaries : BT.709
Transfer characteristics : BT.709
Matrix coefficients : BT.709
Codec configuration box : avcC

Watch UFC

Audio
ID : 2
Format : AAC LC
Codec ID : mp4a-40-2
Duration : 2 h 32 min
Bit rate mode : Variable
Bit rate : 132 kb/s
Maximum bit rate : 135 kb/s
Channel(s) : 2 channels
Channel layout : L R
Sampling rate : 48.0 kHz
Frame rate : 46.875 FPS (1024 SPF)
Compression mode : Lossy
Stream size : 144 MiB (11%)
Default : Yes
Alternate group : 1

 

 

[collapse]

 

 

https://dx-tv.com/

You May Also Like

1 Comment

Leave a Reply

Your email address will not be published. Required fields are marked *

This site uses Akismet to reduce spam. Learn how your comment data is processed.