Watch UFC Tuesday Night Contender Series S04W08

UFC Tuesday Night Contender Series S04W08 DX-TV

Watch UFC

 

 Watch UFC

 

Watch UFC Tuesday Night Contender Series S04W08

 

DANA WHITE’S CONTENDER SERIES: SEASON 4, WEEK 5 TV, LIVE STREAM

  • ESPN+

Viewers can live-stream the Season 4, Week 5 show of Dana White’s Contender Series on ESPN+, beginning at 8 p.m. ET on Tuesday night.

Watch UFC

DANA WHITE’S CONTENDER SERIES: SEASON 4, WEEK 5 FULL FIGHT CARD

  • Dennis Buzukja (145.5) vs. Melsik Baghdasaryan (145); Featherweight
  • Jimmy Flick (125.5) vs. Nate Smith (125.5); Flyweight  Watch UFC
  • Jose Johnson (135) vs. Ronnie Lawrence (135.5); Bantamweight 
  • Cody Brundage (205) vs. William Knight (206); Light heavyweight 
  • Chase Gibson (156) vs. Tucker Lutz (155.5); Lightweight

Watch UFC

 

Complete name : UFC.Tuesday.Night.Contender.Series.S04W08.720p.WEB.mp4
Format : MPEG-4
Format profile : Base Media
Codec ID : isom
File size : 2.39 GiB
Duration : 1 h 51 min
Overall bit rate mode : Variable
Overall bit rate : 3 065 kb/s
Writing application : Lavf58.12.100

 UFC

Video
ID : 1
Format : AVC
Duration : 1 h 51 min
Bit rate mode : Variable
Bit rate : 2 924 kb/s
Maximum bit rate : 3 159 kb/s
Width : 1 280 pixels Watch UFC
Height : 720 pixels
Display aspect ratio : 16:9
Frame rate mode : Variable
Frame rate : 30.000 FPS
Standard : NTSC
Color space : YUV
Chroma subsampling : 4:2:0
Bit depth : 8 bits
Scan type : Progressive
Bits/(Pixel*Frame) : 0.106
Stream size : 2.28 GiB (95%)
Color primaries : BT.709
Transfer characteristics : BT.709
Matrix coefficients : BT.709
Codec configuration box : avcC

Watch UFC

Audio
ID : 2
Format : AAC LC
Format/Info : Advanced Audio
Codec ID : mp4a-40-2
Duration : 1 h 51 min
Bit rate mode : Constant
Bit rate : 132 kb/s
Channel(s) : 2 channels
Channel layout : L R
Sampling rate : 48.0 kHz
Frame rate : 46.875 FPS (1024 SPF)
Compression mode : Lossy
Stream size : 106 MiB (4%)
Default : Yes
Alternate group : 1

 

 

 

Watch UFC Tuesday Night Contender Series S04W08

 

 

Watch online

 

 

Server 1

 

 

 

 

Watch UFC

 

 

 

 

Server-2

 

 

 

watch now

 

 

 

 

Uploaded By Site DX-TV.com

 

 

Download Links with premium High Speed   

 

 

http://shrt10.com/6nIrh
http://shrt10.com/3X4SQ
http://shrt10.com/pO6xL5
http://shrt10.com/K1P3YcU
http://shrt10.com/jAVS6
http://shrt10.com/jXAYUSP

 

 

 

 

dropapk.to

 

 

 

nitroflare.com

 

 

 

rapidgator.net

 

 

 

uploaded.net

 

 

 

uploadgig.com

 

 

 

Watch UFC

 

dx-tv.com

 

urlfree.net

You May Also Like

Leave a Reply

Your email address will not be published. Required fields are marked *

This site uses Akismet to reduce spam. Learn how your comment data is processed.