Watch UFC Polaris 12 720p

Watch UFC Polaris 12 720p DX-TV

 

 

WWE RAW

 

 

 

 

dx-tv.com

 

 

 

 

Watch UFC Polaris 12 720p

 

 

 

 

 

Complete name : UFC.Polaris.12.720p.WEB.H264-SHREDDIE.mp4
Format : MPEG-4
Format profile : Base Media
File size : 4.83 GiB
Duration : 2 h 37 min
Overall bit rate : 4 391 kb/s
Writing application : Lavf56.40.101

Video
ID : 1
Format : AVC
Duration : 2 h 37 min
Bit rate : 4 248 kb/s
Width : 1 280 pixels
Height : 720 pixels
Display aspect ratio : 16:9
Frame rate mode : Constant
Frame rate : 29.970 (30000/1001) FPS
Original frame rate : 29.970 (29970/1000) FPS
Color space : YUV
Chroma subsampling : 4:2:0
Bit depth : 8 bits
Scan type : Progressive
Bits/(Pixel*Frame) : 0.154
Stream size : 4.67 GiB (97%)
Codec configuration box : avcC

Audio
ID : 2
Format : AAC LC
Codec ID : mp4a-40-2
Duration : 2 h 37 min
Bit rate mode : Constant
Bit rate : 132 kb/s
Channel(s) : 2 channels
Channel layout : L R
Sampling rate : 44.1 kHz
Frame rate : 43.066 FPS (1024 SPF)
Compression mode : Lossy
Stream size : 148 MiB (3%)
Default : Yes
Alternate group : 1

 

 

 

 

 

 

Watch online

 

 

Waiting finish converting video

 

 

Server 1

 

 

 

 

 

 

 

 

 

 

 

 

 

Server 2

 

 

 

 

 

 

 

 

 

 

Server–3

 

 

 

 

 

 

 

 

 

 

Server 4

 

 

 

 

 

 

 

 

 

 

Uploaded By Site DX-TV.com

 

 

 

 

 

Watch UFC Polaris 12 720p

 

 

 

 

 

 

Recommended For Free with slow speed

 

 

 

 

1fichier.com

 

 

 

anonfile.com

 

 

 

dl.free.fr

 

 

 

Download with high speed Premium account

 

 

 

nitroflare.com

 

 

 

rapidgator.net

 

 

 

uploaded.net

 

 

 

 

 

 

 

Categories

Earn money $25 as per 1000

103