Watch UFC on ESPN 11 720p Free Online

UFC on ESPN 11 720p Full Show Online DX-TV

 

Watch UFC

 UFC on ESPN 11
 

 

Watch UFC on ESPN 11 720p Free Online

 

 

 

Complete name : UFC.on.ESPN.11.720p.HDTV.x264-VERUM.mkv
Format : Matroska
Format version : Version 4
File size : 4.27 GiB
Duration : 3 h 13 min
Overall bit rate : 3 165 kb/s
Watch UFC application : x264.exe
Writing library : MS-DOS 6.22
Tool : Custom Encoder

Watch UFC on ESPN 11 720p Free Online

Video
ID : 1
Format : AVC
Format/Info : Advanced Video Codec
a profile : [email protected]
settings : CABAC / 5 Ref Frames
Watch UFC , CABAC : Yes
Format settings, Reference : 5 frames
Codec ID : V_MPEG4/ISO/AVC
Duration : 3 h 13 min
Bit rate : 2 718 kb/s
Width : 1 280 pixels
Height : 720 pixels
Display aspect ratio : 16:9
Frame rate mode : Constant
Frame rate : 50.000 FPS
Color space : YUV
Chroma subsampling : 4:2:0
Bit depth : 8 bits
Scan type : Watch UFC
Bits/(Pixel*Frame) : 0.059
Stream size : 3.67 GiB (86%)
Language : English
Default : Yes
Forced : No
Color range : Limited
Matrix coefficients : BT.709
Duration_Source : General_Duration

 UFC on ESPN 11 720p Free Online

Audio
ID : 2
Format : MPEG Audio
Format version : Version 1
Watch UFC profile : Layer 2
Format settings : Dual mono
Codec ID : A_MPEG/L2
Codec ID/Hint : MP2
Duration : 3 h 13 min
Bit rate mode : Constant
Bit rate : 384 kb/s
Channel(s) : 2 channels
Sampling rate : 48.0 kHz
Watch UFC mode : Lossy
Stream size : 531 MiB (12%)
Language : English
Default : Yes
Forced : No
Duration_Source : General

 

 

Watch UFC on ESPN 11 720p Free Online

 

 

 

Watch online

 

 

Server 1

 

 

 

 

watch now

 

 

 

 

Server 2

 

 

 

watch now

 

 

 

Server-3

 

 

 

watch now

 

 

 

Uploaded By Site DX-TV.com

 

 

 

Download with premium account Links 

 

 

Keep2Share

 

 

nitroflare.com

 

 

rapidgator.net

 

 

uploadgig.com

 

 

 

dx-tv.com

 

urlfree.net

 148 total views,  1 views today

Leave a Reply

Your email address will not be published. Required fields are marked *

This site uses Akismet to reduce spam. Learn how your comment data is processed.

%d bloggers like this:
Optimized with PageSpeed Ninja