Watch UFC Fight Night Thompson vs Neal Prelims DEC 19 DX

Watch UFC Fight Night Thompson vs Neal Prelims 2020 DEC 19 480p/ 720p/ 1080p DX-TV

Watch UFC Fight Night Thompson vs Neal

 Watch UFC Fight Night Thompson vs Neal

 

Download Links with premium High Speed   

 

 

dropapk.to

http://shrt10.com/lF2agRz
http://shrt10.com/kHvcxCq

http://shrt10.com/hUtngT5      1080p

 

nitroflare.com

http://shrt10.com/DnrXSRA4
http://shrt10.com/pC7zyQz

http://shrt10.com/dEBVI         1080p

 

rapidgator.net

http://shrt10.com/3Pb3ir
http://shrt10.com/fUm5iVITO

http://shrt10.com/k4SOiYa      1080p

 

uploaded.net

http://shrt10.com/Oqrrt

 

 

uploadgig.com

http://shrt10.com/sW0ar
http://shrt10.com/Mm0gyJ

 

 

 

Watch online

 

Server 1

 

 

 

 

Watch UFC Fight Night Thompson vs Neal

 

 

 

 

Server-2

 

 

 

 

watch now

 

 

Uploaded By Site DX-TV.com

 

 

 

[su_expand more_text=”Show More Info” less_text=”Close all Info” height=”50″ text_color=”#000000″ link_color=”#e25f8b” link_style=”button” more_icon=”icon: arrow-down” less_icon=”icon: arrow-up”]
Complete name : UFC.Fight.Night.Thompson.vs.Neal.Prelims.WEB-DL DX-TV.mp4
Format : MPEG-4
Format profile : Base Media
File size : 1.88 GiB
Duration : 3 h 48 min
Overall bit rate mode : Variable
Overall bit rate : 1 181 kb/s
Writing application : Lavf58.12.100

Video
ID : 2
Format : AVC
Duration : 3 h 48 min
Bit rate mode : Variable
Bit rate : 1 041 kb/s
Maximum bit rate : 1 069 kb/s
Width : 896 pixels
Height : 504 pixels
Display aspect ratio : 16:9
Frame rate mode : Variable
Frame rate : 30.000 FPS
Standard : NTSC
Color space : YUV
Chroma subsampling : 4:2:0
Bit depth : 8 bits
Scan type : Progressive
Bits/(Pixel*Frame) : 0.077
Stream size : 1.66 GiB
Color range : Limited
Color primaries : BT.709
Transfer characteristics : BT.709
Matrix coefficients : BT.709
Codec configuration box : avc

Watch UFC Fight Night Thompson vs Neal

Audio
ID : 3
Format : AAC LC
Format/Info : Advanced Audio
Codec ID : mp4a-40-2
Duration : 3 h 48 min
Bit rate mode : Constant
Bit rate : 132 kb/s
Channel(s) : 2 channels
Channel layout : L R
Sampling rate : 48.0 kHz
Frame rate : 46.875 FPS
Compression mode : Lossy
Stream size : 215 MiB
Default : Yes
Alternate group : 1

Complete name : UFC.Fight.Night.Thompson.vs.Neal.Prelims.720p WEB-DL DX-TV.mp4
Format : MPEG-4
Format profile : Base Media
Codec ID : isom
File size : 5.06 GiB
Duration : 3 h 48 min
Overall bit rate mode : Variable
Overall bit rate : 3 172 kb/s
Writing application : Lavf58.12.100

Watch UFC Fight Night Thompson vs Neal

Video
ID : 2
Format : AVC
Duration : 3 h 48 min
Bit rate mode : Variable
Bit rate : 3 031 kb/s
Maximum bit rate : 3 159 kb/s
Width : 1 280 pixels
Height : 720 pixels
Display aspect ratio : 16:9
Frame rate mode : Variable
Frame rate : 30.000 FPS
Standard : NTSC
Color space : YUV
Chroma subsampling : 4:2:0
Bit depth : 8 bits
Scan type : Progressive
Bits/(Pixel*Frame) : 0.110
Stream size : 4.83 GiB (96%)
Color range : Limited
Color primaries : BT.709
Transfer characteristics : BT.709
Matrix coefficients : BT.709
Codec configuration box : avc

 UFC Fight Night Thompson vs Neal

Audio
ID : 3
Format : AAC LC
Format/Info : Advanced Audio
Codec ID : mp4a-40-2
Duration : 3 h 48 min
Bit rate mode : Constant
Bit rate : 132 kb/s
Channel(s) : 2 channels
Channel layout : L R
Sampling rate : 48.0 kHz
Frame rate : 46.875 FPS
Compression mode : Lossy
Stream size : 215 MiB
Default : Yes
Alternate group : 1

Thompson vs Neal

Complete name : UFC.Fight.Night.Thompson.vs.Neal.Prelims.1080p.WEB-DL DX-TV.mp4
Format : MPEG-4
File size : 9.49 GiB
Duration : 3 h 47 min
Overall bit rate mode : Variable
Overall bit rate : 5 959 kb/s
Writing application : Lavf58.12.100

Video
ID : 2
Format : AVC
Duration : 3 h 47 min
Bit rate mode : Variable
Bit rate : 5 817 kb/s
Maximum bit rate : 8 864 kb/s
Width : 1 920 pixels
Height : 1 080 pixels
Display aspect ratio : 16:9
Frame rate mode : Variable
Frame rate : 30.000 FPS
Color space : YUV
Chroma subsampling : 4:2:0
Bit depth : 8 bits
Scan type : Progressive
Bits/(Pixel*Frame) : 0.094
Codec configuration box : avc

Watch UFC Fight Night  

Audio
ID : 3
Format : AAC LC
Codec ID : mp4a-40-2
Duration : 3 h 47 min
Bit rate mode : Constant
Bit rate : 132 kb/s
Channel(s) : 2 channels
Channel layout : L R
Sampling rate : 48.0 kHz
Compression mode : Lossy
Stream size : 214 MiB (2%)
Default : Yes
Alternate group : 1

Watch UFC Fight Night  

[/su_expand]

 

https://dx-tv.com/

You May Also Like

Leave a Reply

Your email address will not be published. Required fields are marked *

This site uses Akismet to reduce spam. Learn how your comment data is processed.