Watch UFC Fight Night 167 PPV 720p DX-TV

UFC Fight Night 167 PPV 720p DX-TV

 

Watch UFC Fight Night 167

 

 UFC Fight Night 167

 

 

 

 

Watch UFC Fight Night 167 PPV 720p DX-TV

 

 

Complete name :UFC.Fight.Night.167.720p.mp4
Format : MPEG-4
Format profile : Base Media
File size : 4.20 GiB
Duration : 3 h 8 min
Overall bit rate mode : Variable
Overall bit rate : 3 189 kb/s

Video
ID : 1
Format : AVC
Duration : 3 h 8 min
Bit rate mode : Variable
Bit rate : 3 047 kb/s
Maximum bit rate : 3 159 kb/s
Width : 1 280 pixels
Height : 720 pixels
Display aspect ratio : 16:9
Frame rate mode : Variable
Frame rate : 30.000 FPS
Minimum frame rate : 15.000 FPS
Maximum frame rate : 90 000.000 FPS
Standard : NTSC
Color space : YUV
Chroma subsampling : 4:2:0
Bit depth : 8 bits
Scan type : Progressive
Bits/(Pixel*Frame) : 0.110
Stream size : 4.01 GiB (96%)
Color range : Limited
Color primaries : BT.709
Transfer characteristics : BT.709
Matrix coefficients : BT.709
Codec configuration box : avcC

Audio
ID : 2
Format : AAC LC
Codec ID : mp4a-40-2
Duration : 3 h 8 min
Bit rate mode : Variable
Bit rate : 132 kb/s
Maximum bit rate : 139 kb/s
Channel(s) : 2 channels
Channel layout : L R
Sampling rate : 48.0 kHz
Frame rate : 46.875 FPS (1024 SPF)
Compression mode : Lossy
Stream size : 178 MiB (4%)
Default : Yes
Alternate group : 1

 

 

 

Watch online

 

 

Waiting finish converting video

 

 

Server 1

 

 

 

watch now

 

 

 

Watch UFC Fight Night 167 PPV 720p DX-TV

 

 

Uploaded By Site DX-TV.com

 

 

 

 

 

1fichier.com 

https://shrt10.com/BKugjayo
https://shrt10.com/FkB5tG
https://shrt10.com/JsU88lGFQ

 

dl.free.fr

 

 

rockfile.co

https://shrt10.com/Ke0XlnvGG
https://shrt10.com/kEqkVEcT
https://shrt10.com/FQlTUMNw

 

 

Download with premium account Links 

 

 

Keep2Share

 

 

alfafile.net

 

 

nitroflare.com

 

 

rapidgator.net

 

 

uploadgig.com

 

 

 

dx-tv.com

 

Leave a Reply

Your email address will not be published. Required fields are marked *

This site uses Akismet to reduce spam. Learn how your comment data is processed.

%d bloggers like this: