Watch UFC Fight Night 166 720p

UFC Fight Night 166 720p Fight Pass DX-TV

 

 

UFC

 

 

 

 

dx-tv.com

 

 

 

 

Watch UFC Fight Night 166 720p

 

 

 

 

 

Complete name : UFC.Fight.Night.166 720p.WEB.mp4
Format : MPEG-4
Format profile : Base Media
Codec ID : isom
File size : 3.21 GiB
Duration : 2 h 27 min
Overall bit rate mode : Variable
Overall bit rate : 3 120 kb/s
Writing application : Lavf58.12.100

Video
ID : 1
Format : AVC
Format/Info : Advanced Video Codec
Codec ID : avc1
Codec ID/Info : Advanced Video Coding
Duration : 2 h 27 min
Bit rate mode : Variable
Bit rate : 2 980 kb/s
Maximum bit rate : 3 159 kb/s
Width : 1 280 pixels
Height : 720 pixels
Display aspect ratio : 16:9
Frame rate mode : Variable
Frame rate : 30.000 FPS
Minimum frame rate : 15.000 FPS
Maximum frame rate : 90 000.000 FPS
Standard : NTSC
Color space : YUV
Chroma subsampling : 4:2:0
Bit depth : 8 bits
Scan type : Progressive
Bits/(Pixel*Frame) : 0.108
Stream size : 3.07 GiB (96%)
Color primaries : BT.709
Transfer characteristics : BT.709
Matrix coefficients : BT.709
Codec configuration box : avcC

Audio
ID : 2
Format : AAC LC
Format/Info : Advanced Audio Codec Low Complexity
Codec ID : mp4a-40-2
Duration : 2 h 27 min
Bit rate mode : Variable
Bit rate : 132 kb/s
Maximum bit rate : 138 kb/s
Channel(s) : 2 channels
Channel layout : L R
Sampling rate : 48.0 kHz
Frame rate : 46.875 FPS (1024 SPF)
Compression mode : Lossy
Stream size : 139 MiB (4%)
Default : Yes
Alternate group : 1

 

 

 

 

 

 

Watch online

 

 

Waiting finish converting video

 

 

Server 1

 

 

 

 

 

watch now

 

 

 

Watch UFC Fight Night 166 720p

 

 

 

Uploaded By Site DX-TV.com

 

 

 

 

 

Download VIP Members FTP server Download 1 Link and Free Links 

 

 

 

Limited Time will be removed after 90 days if you need available again pm email admin

 

[member]
 

FTP Link Download high speed

[/member]

1fichier.com 

 

https://shrt10.com/WQ88eEMmI
https://shrt10.com/PYr1YCeDT

 

dailyuploads.net

 

https://shrt10.com/7ry81r1B
https://shrt10.com/DEzznS

DDL.to

 

https://shrt10.com/W6USk
https://shrt10.com/DKb1WmVWN

  

earn4files.com

 

https://shrt10.com/N1SBrgh
https://shrt10.com/Xn2OlTn6z

 

filerio.in

 

https://shrt10.com/FuCN05
https://shrt10.com/y5VLeL

 

katfile.com

 

https://shrt10.com/QOjLuiy
https://shrt10.com/UNIQZv0ZD

 

rockfile.co

https://shrt10.com/rhTwCo
https://shrt10.com/niSHZjQP

 

Ubloadbank.com

 

https://shrt10.com/7pKPWOOfJ

https://shrt10.com/ZFhiB

 

Download with premium account Links 

 

 

nitroflare.com

 

 

rapidgator.net

 

 

uploaded.net