Watch UFC Fight Night 163 1080p DX-TV

Watch UFC Fight Night 163 1080p HDTV H264 DX-TV

 

 

UFC Fight Night 163

 

 

 

 

dx-tv.com

 

 

 

 

Watch UFC Fight Night 163 1080p DX-TV

 

 

 

 

 

Complete name : UFC.Fight.Night.163.Main.Card.HDTV H264 DX-TV.mp4
Format : MPEG-4
Format profile : Base Media / Version 1
Codec ID : mp41 (mp41/isom)
File size : 14.2 GiB
Duration : 3 h 18 min
Overall bit rate : 10.2 Mb/s

Video
ID : 1
Format : AVC
Format/Info : Advanced Video Codec
Codec ID : avc1
Codec ID/Info : Advanced Video Coding
Duration : 3 h 18 min
Bit rate : 10.0 Mb/s
Width : 1 920 pixels
Height : 1 080 pixels
Display aspect ratio : 16:9
Frame rate mode : Variable
Frame rate : 60.000 FPS
Minimum frame rate : 3.750 FPS
Maximum frame rate : 150.000 FPS
Color space : YUV
Chroma subsampling : 4:2:0
Bit depth : 8 bits
Scan type : Progressive
Bits/(Pixel*Frame) : 0.081
Stream size : 13.9 GiB (98%)
Language : English
Codec configuration box : avcC

Audio
ID : 2
Format : AAC LC
Format/Info : Advanced Audio Codec Low Complexity
Codec ID : mp4a-40-2
Duration : 3 h 18 min
Bit rate mode : Constant
Bit rate : 192 kb/s
Channel(s) : 2 channels
Channel layout : L R
Sampling rate : 48.0 kHz
Frame rate : 46.875 FPS (1024 SPF)
Compression mode : Lossy
Stream size : 273 MiB (2%)
Language : English

 

 

 

 

 

 

Watch online

 

 

Waiting finish converting video

 

 

Server 1

 

 

 

 

 

 

 

watch now

 

 

 

 

 

 

Server 2

 

 

 

 

 

 

 

watch now

 

 

 

 

 

 

 

 

Uploaded By Site DX-TV.com

 

 

 

 

 

Watch UFC Fight Night 163 1080p DX-TV

 

 

 

 

 

 

Recommended For Free

 

 

 

 

earn4files.com

 

https://shrt10.com/aCV0
https://shrt10.com/q0GzXCuu
https://shrt10.com/21KFt
https://shrt10.com/6CQw
 

 

Download with high speed with Premium account

 

 

 

 

nitroflare.com

 

 
https://shrt10.com/h2tmk7Ef
https://shrt10.com/C9LrZD3Y
https://shrt10.com/3WE3y
https://shrt10.com/CZXbusCy
 

 

rapidgator.net

 

https://rapidgator.net/file/bc9d79946bb4044dd43715f91d4bc5e7
https://rapidgator.net/file/43f96de50ae249460dab23b676b849a5
https://rapidgator.net/file/7811a08426f733380c67e81f98011729
https://rapidgator.net/file/058c4b528ac9057a7f5375113a03798f
 

 

 

uploaded.net

 

 

https://shrt10.com/27to
https://shrt10.com/ZvCkhKwT
https://shrt10.com/1ATkEK
https://shrt10.com/LkRSpbdT
 

 

Leave a Reply

Your email address will not be published. Required fields are marked *

one × one =