Watch UFC Fight Night 151 HDTV DX-TV full show free mp4

Watch UFC Fight Night 151 HDTV DX-TV full show free mp4

 

 

 

 


 

 

dx-tv.com

 

 

 

 

 

[EVENT]………..: UFC Fight Night 151 HDTV x264 DX-TV mp4
[RELEASED]……..: 2019.05.04
[SOURCE]……….: HDTV 1080p
[CONTAINER]…….: mp4
[SIZE]…………: 2.24 GB
[Capper Group]….: DX-TV
[Duration]……..: 3 h 12 m
[RESOLUTION]……: 704 x 400 {16:9}@ 29.970 FPS
[VIDEO]………..: x264 @ 1500 kbps
[AUDIO]………..: AAC @ 129 kbps
[language]……..: English

 

 

Complete name : WWE\Downloading\UFC Fight Night 151 HDTV DX-TV.m4v
Format : MPEG-4
Format profile : Base Media / Version 2
Codec ID : mp42 (isom/iso2/avc1/mp41)
File size : 2.24 GiB
Duration : 3 h 12 min
Overall bit rate mode : Variable
Overall bit rate : 1 667 kb/s

Video
ID : 1
Format : AVC
Format/Info : Advanced Video Codec
Format settings, Reference : 4 frames
Codec ID : avc1
Codec ID/Info : Advanced Video Coding
Duration : 3 h 12 min
Bit rate : 1 500 kb/s
Width : 704 pixels
Height : 400 pixels
Display aspect ratio : 16:9
Frame rate mode : Variable
Frame rate : 29.970 (30000/1001) FPS
Minimum frame rate : 22.059 FPS
Maximum frame rate : 46.729 FPS
Color space : YUV
Chroma subsampling : 4:2:0
Bit depth : 8 bits
Scan type : Progressive
Bits/(Pixel*Frame) : 0.178
Stream size : 2.02 GiB 
Color primaries : BT.709
Transfer characteristics : BT.709
Matrix coefficients : BT.709
Codec configuration box : avcC

Audio
ID : 2
Format : AAC LC
Format/Info : Advanced Audio 
Codec ID : mp4a-40-2
Duration : 3 h 12 min
Bit rate mode : Variable
Bit rate : 160 kb/s
Channel(s) : 2 channels
Channel layout : L R
Sampling rate : 48.0 kHz
Frame rate : 46.875 FPS (1024 SPF)
Compression mode : Lossy
Stream size : 220 MiB (10%)
Title : Stereo / Stereo
Language : English
Default : Yes
Alternate group : 1

 

 

Watch UFC Fight Night 151 HDTV DX-TV full show free mp4

 

 

 

 

Watch online

 

 

Waiting finish converting video

 

 

Server 1

 

 

 



Uploaded By Site DX-TV.com

 

 

 

open rar file to see this password

 

 

 

 

The password : DX-TV.com

 

 

 

 

Uploaded.net + rapidgator.net + katfile.com + bitster.cz

 

 

 

 


https://shrt10.com/pCwY0NE
 

 

 
https://shrt10.com/HFnj
 

 

 

 

 

 

Watch UFC Fight Night 151 HDTV DX-TV full show free mp4

Author: snaw90

Leave a Reply

Your email address will not be published. Required fields are marked *