Watch UFC Fight Night 151 Early Prelims 720p WEB DL Full Show mp4

Watch UFC Fight Night 151 Early Prelims 720p WEB DL Full Show mp4

 

 

 

 


 

 

dx-tv.com

 

 

 

 

Complete name : UFC.Fight.Night.151.Early.Prelims.720p.WEB-DL.mp4
Format : MPEG-4
Format profile : Base Media
Codec ID : isom (isom/iso2/avc1/mp41)
File size : 2.29 GiB
Duration : 1 h 17 min
Overall bit rate : 4 246 kb/s
Writing application : Lavf58.12.100

Video
ID : 1
Format : AVC
Format/Info : Advanced Video Codec
Format settings, Reference : 3 frames
Codec ID : avc1
Codec ID/Info : Advanced Video Coding
Duration : 1 h 17 min
Bit rate : 4 108 kb/s
Width : 1 280 pixels
Height : 720 pixels
Display aspect ratio : 16:9
Frame rate mode : Constant
Frame rate : 29.970 (30000/1001) FPS
Original frame rate : 29.970 (29970/1000) FPS
Color space : YUV
Chroma subsampling : 4:2:0
Bit depth : 8 bits
Scan type : Progressive
Bits/(Pixel*Frame) : 0.149
Stream size : 2.21 GiB (97%)
Codec configuration box : avcC

Audio
ID : 2
Format : AAC LC
Format/Info : Advanced Audio Codec Low Complexity
Codec ID : mp4a-40-2
Duration : 1 h 17 min
Bit rate mode : Constant
Bit rate : 130 kb/s
Channel(s) : 2 channels
Channel layout : L R
Sampling rate : 44.1 kHz
Frame rate : 43.066 FPS (1024 SPF)
Compression mode : Lossy
Stream size : 71.4 MiB (3%)
Default : Yes
Alternate group : 1

 

 

 

 

 


 

 

Watch UFC Fight Night 151 Early Prelims 720p WEB DL Full Show mp4

 

 

 

 

Watch online

 

 

Waiting finish converting video

 

 

Server 1

 

 

 

 

 

 

 

 

 


 


 

 

Uploaded By Site DX-TV.com

 

 

 

open rar file to see this password

 

 

 

 

The password : DX-TV.com

 

 

 

 

Uploaded.net + rapidgator.net + katfile.com + bitster.cz

 

 

 

 


 

 

 
https://shrt10.com/Ewtrnk
 

 
https://shrt10.com/3Qz6n
 

 
https://shrt10.com/g8Ke
 

 

 

 

Watch UFC Fight Night 151 Early Prelims 720p WEB DL Full Show mp4

Author: snaw90

Leave a Reply

Your email address will not be published. Required fields are marked *