Watch UFC Fight Night 151 720p HDTV VERUM full show mp4

Watch UFC Fight Night 151 720p HDTV VERUM full show mp4

 

 

 

 


 

 

dx-tv.com

 

 

 

 

 

Complete name : UFC.Fight.Night.151.720p.HDTV.x264-VERUM
Format : Matroska
Format version : Version 4
File size : 4.58 GiB
Duration : 3 h 12 min
Overall bit rate : 3 413 kb/s
Writing application : x264.exe
Writing library : MS-DOS 6.22
Tool : Custom Encoder

Video
ID : 1
Format : AVC
Format/Info : Advanced Video Codec
Format settings, Reference : 5 frames
Codec ID : V_MPEG4/ISO/AVC
Duration : 3 h 12 min
Bit rate : 3 089 kb/s
Width : 1 280 pixels
Height : 720 pixels
Display aspect ratio : 16:9
Frame rate mode : Constant
Frame rate : 50.000 FPS
Color space : YUV
Chroma subsampling : 4:2:0
Bit depth : 8 bits
Scan type : Progressive
Bits/(Pixel*Frame) : 0.067
Stream size : 4.15 GiB (91%)
Language : English
Default : Yes
Forced : No
Color range : Limited
Matrix coefficients : BT.709

Audio
ID : 2
Format version : Version 1
Format profile : Layer 2
Codec ID : A_MPEG/L2
Codec ID/Hint : MP2
Duration : 3 h 12 min
Bit rate mode : Constant
Bit rate : 256 kb/s
Channel(s) : 2 channels
Sampling rate : 48.0 kHz
Compression mode : Lossy
Stream size : 352 MiB (8%)
Language : English
Default : Yes
Forced : No

 

 

 

 

 


 

 

Watch UFC Fight Night 151 720p HDTV VERUM full show mp4

 

 

 

 

Watch online

 

 

Waiting finish converting video

 

 

Server 1

 

 

 

 

 

 

 

 

 

 

 

 

 


 

 

 


 

 

Uploaded By Site DX-TV.com

 

 

 

open rar file to see this password

 

 

 

 

The password : DX-TV.com

 

 

 

 

Uploaded.net + rapidgator.net

 

 

 

 


 

 

https://shrt10.com/3UlFaMx
 

https://shrt10.com/XqMuK6pZ
 

https://shrt10.com/biTw
 

 

 

 

 

 

Watch UFC Fight Night 151 720p HDTV VERUM full show mp4

Author: snaw90

Leave a Reply

Your email address will not be published. Required fields are marked *