Watch UFC Fight Night 150 Prelims 1080p WEB WDTeam full show free mp4

 

 

 

 


 

 

 

dx-tv.com

 

 

 

 

Complete name : UFC.Fight.Night.150.Prelims.1080p.WEB-WDTeam.mp4
Format : MPEG-4
Format profile : Base Media
Codec ID : isom (isom)
File size : 4.27 GiB
Duration : 1 h 57 min
Overall bit rate : 5 193 kb/s
Encoded date : UTC 2019-04-27 01:02:23
Tagged date : UTC 2019-04-27 01:02:23

Video
ID : 1
Format : AVC
Format/Info : Advanced Video Codec
Format settings, Reference : 4 frames
Codec ID : avc1
Codec ID/Info : Advanced Video Coding
Duration : 1 h 57 min
Source duration : 1 h 57 min
Bit rate : 4 782 kb/s
Width : 1 920 pixels
Height : 1 080 pixels
Display aspect ratio : 16:9
Frame rate mode : Constant
Frame rate : 50.000 FPS
Color space : YUV
Chroma subsampling : 4:2:0
Bit depth : 8 bits
Scan type : Progressive
Bits/(Pixel*Frame) : 0.046
Stream size : 3.93 GiB (92%)
Source stream size : 4.10 GiB (96%)
Codec configuration box : avcC

Audio
ID : 2
Format : AAC LC
Codec ID : mp4a-40-2
Duration : 1 h 57 min
Bit rate mode : Constant
Bit rate : 197 kb/s
Channel(s) : 2 channels
Channel layout : L R
Sampling rate : 48.0 kHz
Frame rate : 46.875 FPS (1024 SPF)
Compression mode : Lossy
Stream size : 165 MiB (4%)
Default : Yes
Alternate group : 1

 

 

 

 

 


 

 

 

Watch UFC Fight Night 150 Prelims 1080p WEB WDTeam full show free mp4

 

 

 

 

Watch online

 

 

Waiting finish converting video

 

 

Server 1

 

 

 

 

 

 


 

 

 

 

 


 

 


 

 

 

Uploaded By Site DX-TV.com

 

 

 

open rar file to see this password

 

 

 

 

The password : DX-TV.com

 

 

 

 

Uploaded.net + rapidgator.net + DDL.to + katfile.com

 

 

 

 


 

 

 
https://shrt10.com/qCIO9

 

 

 

 
https://shrt10.com/t1zGo
 

 

 

 

Watch UFC Fight Night 150 Prelims 1080p WEB WDTeam full show free mp4