Watch UFC Fight Night 150 Early Prelims WEB DL full show free mp4

 

 

 

 


 

 

 

dx-tv.com

 

 

 

 

Complete name : UFC.Fight.Night.150.Early.Prelims.WEB-DL..mp4
Format : MPEG-4
Format profile : Base Media
Codec ID : isom
File size : 949 MiB
Duration : 1 h 29 min
Overall bit rate : 1 478 kb/s
Writing application : Lavf58.12.100

Video
ID : 1
Format : AVC
Format/Info : Advanced Video Codec
Format settings, Reference : 3 frames
Codec ID : avc1
Codec ID/Info : Advanced Video Coding
Duration : 1 h 29 min
Bit rate : 1 388 kb/s
Width : 852 pixels
Height : 480 pixels
Display aspect ratio : 16:9
Frame rate mode : Constant
Frame rate : 29.970 (30000/1001) FPS
Original frame rate : 29.970 (29970/1000) FPS
Color space : YUV
Chroma subsampling : 4:2:0
Bit depth : 8 bits
Scan type : Progressive
Bits/(Pixel*Frame) : 0.113
Stream size : 891 MiB (94%)
Codec configuration box : avcC

Audio
ID : 2
Format : AAC LC
Codec ID : mp4a-40-2
Duration : 1 h 29 min
Bit rate mode : Constant
Bit rate : 81.1 kb/s
Channel(s) : 2 channels
Channel layout : L R
Sampling rate : 44.1 kHz
Frame rate : 43.066 FPS (1024 SPF)
Compression mode : Lossy
Stream size : 52.1 MiB (5%)
Default : Yes
Alternate group : 1

 

 

 

 

 


 

 

 

Watch UFC Fight Night 150 Early Prelims WEB DL full show free mp4

 

 

 

 

Watch online

 

 

Waiting finish converting video

 

 

Server 1

 

 

 

 

 

 

 

 


 

 


 

 

 

Uploaded By Site DX-TV.com

 

 

 

open rar file to see this password

 

 

 

 

The password : DX-TV.com

 

 

 

 

Uploaded.net + rapidgator.net + DDL.to + katfile.com

 

 

 

 


 

 

https://shrt10.com/WJnuw6H
 

 
https://shrt10.com/VnOL
 

 
https://shrt10.com/aKNl
 

 
https://shrt10.com/GzhYuBbC
 

 

 

 

 

 

 

 

Watch UFC Fight Night 150 Early Prelims WEB DL full show free mp4