Watch UFC Fight Night 139 Korean Zombie vs Rodríguez HDTV Star

Watch UFC Fight Night 139 Korean Zombie vs Rodríguez HDTV Star

 

 

 

 


 

 

 

 

dx-tv.com

 

 

 

 

 

Complete name : UFC.Fight.Night.139.Korean.Zombie.vs.Rodríguez.HDTV.x264-Star.mp4
Format : MPEG-4
Format profile : Base Media
Codec ID : mp42
File size : 2.14 GiB
Duration : 3h 28mn
Overall bit rate : 1 469 Kbps
Encoded date : UTC 2018-11-11 08:01:26
Tagged date : UTC 2018-11-11 08:01:26

Video
ID : 1
Format : AVC
Format/Info : Advanced Video Codec
Codec ID/Info : Advanced Video Coding
Duration : 3h 28mn
Bit rate mode : Variable
Bit rate : 1 300 Kbps
Width : 712 pixels
Height : 400 pixels
Display aspect ratio : 16:9
Frame rate mode : Constant
Frame rate : 29.970 fps
Color space : YUV
Chroma subsampling : 4:2:0
Bit depth : 8 bits
Scan type : Progressive
Bits/(Pixel*Frame) : 0.152
Stream size : 1.90 GiB (89%)

Audio
ID : 2
Format : AAC
Format/Info : Advanced Audio Codec
Format profile : LC
Codec ID : 40
Duration : 3h 28mn
Bit rate mode : Variable
Bit rate : 160 Kbps
Channel(s) : 2 channels
Channel positions : Front: L R
Sampling rate : 48.0 KHz
Compression mode : Lossy
Stream size : 239 MiB (11%)
Title : Stereo
Encoded date : UTC 2018-11-11 08:01:26
Tagged date : UTC 2018-11-11 08:01:26

 

 

 

 

Watch UFC Fight Night 139 Korean Zombie vs Rodríguez HDTV Star

 

 

 

 

Watch online

 

 

Waiting finish converting video

 

 

Server 1

 

 

 

 

 

 

 

 

 

 

 

 

 

 

 

 

Server 2

 

 

 

 

 

 


 

 

 

 

 

 

Uploaded By Site DX-TV.com

 

 

 

open rar file to see this password

 

 

 

 

The password : DX-TV.com

 

 

 

 

Uploaded.net + rapidgator.net

 

 

 

 

 

 
http://shrt10.com/NWloit

 

 

 
http://shrt10.com/XA4T
 

 

 

 

 

 

Watch UFC Fight Night 139 Korean Zombie vs Rodríguez HDTV Star

Leave a Reply

This site uses Akismet to reduce spam. Learn how your comment data is processed.