Watch UFC Fight Night 139 Early Prelims 720p HDTV Star

Watch UFC Fight Night 139 Early Prelims 720p HDTV Star

 

 

 

 


 

 

dx-tv.com

 

 

 

 

Complete name : UFC.Fight.Night.139.Early.Prelims.720p.HDTV.x264-Star.mp4
Format : MPEG-4
Format profile : Base Media
Codec ID : mp42
File size : 1.96 GiB
Duration : 59mn 55s
Overall bit rate : 4 687 Kbps
Encoded date : UTC 2018-11-11 03:17:25
Tagged date : UTC 2018-11-11 03:17:25

Video
ID : 1
Format : AVC
Format/Info : Advanced Video Codec
Codec ID : avc1
Codec ID/Info : Advanced Video Coding
Duration : 59mn 55s
Bit rate mode : Variable
Bit rate : 4 500 Kbps
Width : 1 280 pixels
Height : 720 pixels
Display aspect ratio : 16:9
Frame rate mode : Constant
Frame rate : 29.970 fps
Color space : YUV
Chroma subsampling : 4:2:0
Bit depth : 8 bits
Scan type : Progressive
Bits/(Pixel*Frame) : 0.163
Stream size : 1.88 GiB (96%)

Audio
ID : 2
Format : AAC
Format/Info : Advanced Audio Codec
Format profile : LC
Codec ID : 40
Duration : 59mn 55s
Bit rate mode : Variable
Bit rate : 192 Kbps
Channel(s) : 2 channels
Channel positions : Front: L R
Sampling rate : 48.0 KHz
Compression mode : Lossy
Stream size : 82.4 MiB (4%)
Title : Stereo
Encoded date : UTC 2018-11-11 03:17:25
Tagged date : UTC 2018-11-11 03:17:25

 

 

 

Watch UFC Fight Night 139 Early Prelims 720p HDTV Star

 

 

 

 

Watch online

 

 

Waiting finish converting video

 

 

Server 1

 

 

 

 

 

 

 

 

 

 

 

 

 

 

 

Server 2

 

 

 

 

 

 

 


 

 

 

 

 

Uploaded By Site DX-TV.com

 

 

 

open rar file to see this password

 

 

 

 

The password : DX-TV.com

 

 

 

 

Uploaded.net + rapidgator.net

 

 

 

 

 

http://shrt10.com/mNIqxXfu

 

 

 
http://shrt10.com/d0m9Ac6
 

 

 

 

 

 

Watch UFC Fight Night 139 Early Prelims 720p HDTV Star

Leave a Reply

This site uses Akismet to reduce spam. Learn how your comment data is processed.