Watch UFC Fight Night 138 Volkan vs Smith HDTV Ebi

UFC Fight Night 138 Volkan vs Smith 720p HDTV Ebi

 

 

 

 


 

 

dx-tv.com

 

 

 

 

Complete name : UFC.Fight.Night.138.Volkan.vs.Smith.720p.HDTV.x264-Ebi.mp4
Format : MPEG-4
Format profile : Base Media
File size : 6.33 GiB
Duration : 3 h 12 min
Overall bit rate mode : Variable
Overall bit rate : 4 708 kb/s
Encoded date : UTC 2018-10-28 08:54:40
Tagged date : UTC 2018-10-28 08:54:40
Writing application : HandBrake 1.1.2 2018090500

Video
ID : 1
Format : AVC
Format/Info : Advanced Video Codec
Codec ID : avc1
Codec ID/Info : Advanced Video Coding
Duration : 3 h 12 min
Bit rate : 4 500 kb/s
Width : 1 280 pixels
Height : 720 pixels
Display aspect ratio : 16:9
Frame rate mode : Constant
Frame rate : 29.970 (30000/1001) FPS
Color space : YUV
Chroma subsampling : 4:2:0
Bit depth : 8 bits
Scan type : Progressive
Bits/(Pixel*Frame) : 0.163
Stream size : 6.06 GiB (96%)
Encoded date : UTC 2018-10-28 08:54:40
Tagged date : UTC 2018-10-28 08:54:40
Color range : Limited
Color primaries : BT.709
Transfer characteristics : BT.709
Matrix coefficients : BT.709

Audio
ID : 2
Format : AAC
Format/Info : Advanced Audio Codec
Format profile : LC
Codec ID : mp4a-40-2
Duration : 3 h 12 min
Bit rate mode : Variable
Bit rate : 192 kb/s
Channel(s) : 2 channels
Channel positions : Front: L R
Sampling rate : 48.0 kHz
Frame rate : 46.875 FPS (1024 SPF)
Compression mode : Lossy
Stream size : 265 MiB (4%)
Title : Stereo / Stereo
Default : Yes
Alternate group : 1
Encoded date : UTC 2018-10-28 08:54:40
Tagged date : UTC 2018-10-28 08:54:40

 

 

UFC Fight Night 138 Volkan vs Smith 720p HDTV Ebi

 

 

 

 

Watch online

 

 

Waiting finish converting video

 

 

Server 1

 

 

 

 

 

 

 

 

 

 

 

 

 

 

 

Server 2

 

 

 

 

 

 


 

 

 

 

 

 

Uploaded By Site DX-TV.com

 

 

 

open rar file to see this password

 

 

 

 

The password : DX-TV.com

 

 

 

 

Uploaded.net + rapidgator.net

 

 

 

 

 

http://shrt10.com/ccIOF5
 

 

 

http://shrt10.com/jeybh5q
 

 

 

http://shrt10.com/OScf

 

 

 
http://shrt10.com/R306W
 

 

 

 

 

UFC Fight Night 138 Volkan vs Smith 720p HDTV Ebi